Начать новую тему Ответить на тему
Статистика раздачи
Размер: 643.98 МБ | Добавлен: 26 мар 2019, 20:33 | Скачали: 0
Сидеров: 0  [0 байт/сек]    Личеров: 1  [0 байт/сек]
Пред. тема | След. тема 

Автор
Сообщение

СообщениеДобавлено: 26 мар 2019, 20:33 

Ответить с цитатой 

Cliff Richard - Soulicious
Жанр: Pop/Rock, R&B/Soul
Стиль: Rhythm & Blues, Soul, Pop-Soul, Pop Rock
Страна-производитель диска: EU
Год издания диска: 2011, October, 10
Издатель (лейбл): VOX Rock Ltd./EMI Records Ltd. (EU)
Номер по каталогу: 50999 0 88152 2 4 (EAN: 5099908815224)
Страна исполнителя: UK
Аудиокодек: FLAC (*.flac)
Тип рипа: image+.cue
Битрейт аудио: lossless
Продолжительность: 01:03:17
Источник (релизер): лично сама
Наличие сканов в содержимом раздачи: да
Tracklist:
01. Saving A Life (with Freda Payne) (04:07)
(Beau Dozier, Joshua Scott)
02. Go On And Tell Him (with Dennis Edwards & The Temptations Review) (04:54)
(Beau Dozier)
03. Do You Ever (with Brenda Holloway) (05:02)
(Beau Dozier)
04. Teardrops (with Candi Staton) (04:27)
(Zekkariyas)
05. When I Was Your Baby (with Roberta Flack) (05:05)
(Nickolas Ashford, Valerie Simpson, Michael Mc Donald)
06. Are You Feeling Me (with Deniece Williams) (04:20)
(Jud Mahoney, Lamont Dozier)
07. Oh How Happy (with Marilyn McCoo & Billy Davis, Jr.) (03:35)
(Edwin Starr)
08. Every Piece Of My Broken Heart (with Valerie Simpson) (03:55)
(Beau Dozier, James Burney)
09. How We Get Down (with Russell Thompkins, Jr. & The New Stylistics) (03:59)
(Beau Dozier, Bruce Boniface, Lamont Dozier)
10. This Time With You (with Candi Staton) (03:55)
(Lamont Dozier)
11. Don't Say You Love Me (It'll Ruin My Day) (03:14)
(Andre Henry)
12. She Looked Good (with Dennis Edwards & The Temptations Review & Lamont Dozier) (03:48)
(Lamont Dozier)
13. I'm Your Puppet (with Percy Sledge) (04:03)
(Dan Penn, Dewey Lindon Oldham)
14. Always And Forever (with Billy Paul) (04:58)
(Cary Gilbert, Leon Huff, Kenneth Gamble, Rod Temperton)
15. Birds Of A Feather (with Peabo Bryson) (03:55)
(Nickolas Ashford, Valerie Simpson, Michael McDonald)
Доп. информация: Новый диск Клиффа Ричарда, иконы британской поп-музыки, состоит из 15 дуэтов с известными звездами жанра Soul/R&B. Среди первых величин, например, The Temptations, Percy Sledge, Candi Staton, Roberta Flack. Одни артисты записали с Ричардом ряд своих прошлых хитов, другие - песни, сочиненные в духе эстрадного ритм-блюза 60-х, специально для данного случая. Создавали диск три легендарных продюсера лейбла Motown, которые произвели несколько десятков шлягеров в ту эпоху, - Lamont Dozier, Nickolas Ashford и Valerie Simpson. Сессии звукозаписи проходили в Америке - в Мемфисе и Нью-Йорке.
В пресс-релизе Ричард благодарит своих партнёров и признаётся, что сделать такой диск было его давней мечтой. Обратиться к этому стилю его подтолкнула конъюнктура: следуя в кильватере моды на неосоул, диски со старыми хитами и в дуэтах с ретро-звёздами создали многие белые музыканты, снискавшие популярность за последние 40 лет.
Рип фирменного диска из моей коллекции, сканы обложек и диска (600 dpi PNG) включены в раздачу.
Код:
Exact Audio Copy V1.0 beta 3 from 29. August 2011
EAC extraction logfile from 6. January 2012, 18:04
Cliff Richard / Soulicious
Used drive  : ATAPI   DVD DW 8X16X8X16   Adapter: 0  ID: 2
Read mode               : Secure
Utilize accurate stream : Yes
Defeat audio cache      : Yes
Make use of C2 pointers : No
Read offset correction                      : 618
Overread into Lead-In and Lead-Out          : No
Fill up missing offset samples with silence : Yes
Delete leading and trailing silent blocks   : No
Null samples used in CRC calculations       : Yes
Used interface                              : Native Win32 interface for Win NT & 2000
Used output format : Internal WAV Routines
Sample format      : 44.100 Hz; 16 Bit; Stereo
TOC of the extracted CD
     Track |   Start  |  Length  | Start sector | End sector
    ---------------------------------------------------------
        1  |  0:00.00 |  4:07.72 |         0    |    18596
        2  |  4:07.72 |  4:54.28 |     18597    |    40674
        3  |  9:02.25 |  5:02.41 |     40675    |    63365
        4  | 14:04.66 |  4:27.11 |     63366    |    83401
        5  | 18:32.02 |  5:05.63 |     83402    |   106339
        6  | 23:37.65 |  4:20.40 |    106340    |   125879
        7  | 27:58.30 |  3:35.68 |    125880    |   142072
        8  | 31:34.23 |  3:55.34 |    142073    |   159731
        9  | 35:29.57 |  3:59.42 |    159732    |   177698
       10  | 39:29.24 |  3:55.72 |    177699    |   195395
       11  | 43:25.21 |  3:14.28 |    195396    |   209973
       12  | 46:39.49 |  3:48.40 |    209974    |   227113
       13  | 50:28.14 |  4:03.28 |    227114    |   245366
       14  | 54:31.42 |  4:58.52 |    245367    |   267768
       15  | 59:30.19 |  3:55.09 |    267769    |   285402
Range status and errors
Selected range
     Filename C:\BlondStyle\Cliff Richard - Soulicious.wav
     Peak level 98.8 %
     Extraction speed 8.5 X
     Range quality 99.9 %
     Test CRC F69FB0E9
     Copy CRC F69FB0E9
     Copy OK
No errors occurred
AccurateRip summary
Track  1  accurately ripped (confidence 1)  [1756CED2]  (AR v2)
Track  2  accurately ripped (confidence 1)  [3E387277]  (AR v2)
Track  3  accurately ripped (confidence 1)  [15B9637F]  (AR v2)
Track  4  accurately ripped (confidence 1)  [AD816E2C]  (AR v2)
Track  5  accurately ripped (confidence 1)  [59652AA1]  (AR v2)
Track  6  accurately ripped (confidence 1)  [6CFC0D51]  (AR v2)
Track  7  accurately ripped (confidence 1)  [6FEFACBF]  (AR v2)
Track  8  accurately ripped (confidence 1)  [0FFFF55A]  (AR v2)
Track  9  accurately ripped (confidence 1)  [BA8307BE]  (AR v2)
Track 10  accurately ripped (confidence 1)  [6C3D9CA9]  (AR v2)
Track 11  accurately ripped (confidence 1)  [821293F7]  (AR v2)
Track 12  accurately ripped (confidence 1)  [19BBA25A]  (AR v2)
Track 13  accurately ripped (confidence 1)  [92F9EE10]  (AR v2)
Track 14  accurately ripped (confidence 1)  [A6A7985F]  (AR v2)
Track 15  accurately ripped (confidence 1)  [9D91A5A1]  (AR v2)
All tracks accurately ripped
End of status report
==== Log checksum 6A33B3D942A7F39EFD601C0A04DF7B864FE1CDEEDB71F7776B67AC08B1887215 ====
Код:
-----------------------------------------------
 Statistics for:    Cliff Richard - Soulicious.wav
 Number of Samples: 167816964
-----------------------------------------------
                  left              right
 Peak value:     -0.10 dB   ---    -0.10 dB
 Avg RMS:        -7.85 dB   ---    -7.92 dB
 DR channel:      5.89 dB   ---     5.90 dB
-----------------------------------------------
 Official DR value:  DR6
===============================================
Правила, инструкции, FAQ!!!
Торрент  Добавлен [26 мар 2019, 20:33] Скачать торрент Магнет ссылка
Скачать торрент
[ Размер 14.13 КБ / Просмотров 3 ]

Статус
Проверен 
 
Размер  643.98 МБ
Приватный: Нет (DHT включён)
.torrent скачан  0
 


     Отправить личное сообщение
   
Страница 1 из 1
Показать сообщения за:  Поле сортировки  
Начать новую тему Ответить на тему


Сейчас этот форум просматривают: нет зарегистрированных пользователей и гости: 0


Вы не можете начинать темы
Вы не можете отвечать на сообщения
Вы не можете редактировать свои сообщения
Вы не можете удалять свои сообщения
Вы не можете добавлять вложения

Перейти:  
cron