Начать новую тему Ответить на тему
Статистика раздачи
Размер: 326.26 МБ | Добавлен: 26 мар 2019, 19:13 | Скачали: 0
Сидеров: 0  [0 байт/сек]    Личеров: 0  [0 байт/сек]
Пред. тема | След. тема 

Автор
Сообщение

СообщениеДобавлено: 26 мар 2019, 19:13 

Ответить с цитатой 

Grace / Hall Of Mirrors
Жанр: Pop-rock/Soul/Folk/Ethnic/Reggae/Blues
Год издания диска: 2008
Аудио кодек: FLAC (*.flac)
Тип рипа: tracks+.cue
Битрейт аудио: lossless
Продолжительность: 49:36
Источник (релизер): Источник - Вата, релизер - cooldeude
Наличие сканов в содержимом раздачи: нет
Треклист:
01. Lost 04:28
02. Open Road 04:32
03. Imagine One Day 03:33
04. Just Look Away 04:59
05. Bang Bang 03:42
06. Gambler 03:49
07. Working Together 03:48
08. To the East 00:13
09. Geisha 03:17
10. Butterfly 03:33
11. Go Your Way 03:52
12. Who Will Tell Them 03:14
13. New Day 03:52
14. All You'll Need 02:45
Код:
Exact Audio Copy V0.99 prebeta 5 from 4. May 2009
EAC extraction logfile from 9. January 2011, 20:53
Grace / Hall Of Mirrors
Used drive  : HL-DT-STDVD+-RW GSA-S10N   Adapter: 1  ID: 0
Read mode               : Secure
Utilize accurate stream : Yes
Defeat audio cache      : Yes
Make use of C2 pointers : No
Read offset correction                      : 667
Overread into Lead-In and Lead-Out          : No
Fill up missing offset samples with silence : Yes
Delete leading and trailing silent blocks   : No
Null samples used in CRC calculations       : Yes
Used interface                              : Native Win32 interface for Win NT & 2000
Gap handling                                : Appended to previous track
Used output format              : User Defined Encoder
Selected bitrate                : 128 kBit/s
Quality                         : High
Add ID3 tag                     : No
Command line compressor         : C:\Program Files (x86)\Exact Audio Copy\Flac\flac.exe
Additional command line options : -V -8 -T "artist=%a" -T "title=%t" -T "album=%g" -T "date=%y" -T "tracknumber=%n" -T "genre=%m" %s
TOC of the extracted CD
     Track |   Start  |  Length  | Start sector | End sector
    ---------------------------------------------------------
        1  |  0:00.00 |  4:28.27 |         0    |    20126
        2  |  4:28.27 |  4:28.34 |     20127    |    40260
        3  |  8:56.61 |  3:33.48 |     40261    |    56283
        4  | 12:30.34 |  4:59.68 |     56284    |    78776
        5  | 17:30.27 |  3:40.55 |     78777    |    95331
        6  | 21:11.07 |  3:48.48 |     95332    |   112479
        7  | 24:59.55 |  3:48.32 |    112480    |   129611
        8  | 28:48.12 |  0:13.07 |    129612    |   130593
        9  | 29:01.19 |  3:16.66 |    130594    |   145359
       10  | 32:18.10 |  3:33.17 |    145360    |   161351
       11  | 35:51.27 |  3:51.63 |    161352    |   178739
       12  | 39:43.15 |  3:14.10 |    178740    |   193299
       13  | 42:57.25 |  3:51.46 |    193300    |   210670
       14  | 46:48.71 |  2:46.64 |    210671    |   223184
       15  | 52:07.60 |  6:38.58 |    234585    |   264492
Track  1
     Filename C:\Users\Adrien\Documents\EAC Rips\Grace - 2008 - Hall Of Mirrors\01 - Lost.wav
     Pre-gap length  0:00:02.00
     Peak level 100.0 %
     Track quality 100.0 %
     Test CRC 1C0E5597
     Copy CRC 1C0E5597
     Cannot be verified as accurate (confidence 10)  [901EC54E], AccurateRip returned [A859893C]
     Copy OK
Track  2
     Filename C:\Users\Adrien\Documents\EAC Rips\Grace - 2008 - Hall Of Mirrors\02 - Open road.wav
     Pre-gap length  0:00:00.64
     Peak level 95.9 %
     Track quality 100.0 %
     Test CRC 27110986
     Copy CRC 27110986
     Cannot be verified as accurate (confidence 10)  [CE2EA575], AccurateRip returned [08FA0E16]
     Copy OK
Track  3
     Filename C:\Users\Adrien\Documents\EAC Rips\Grace - 2008 - Hall Of Mirrors\03 - Imagine one day.wav
     Peak level 100.0 %
     Track quality 100.0 %
     Test CRC FAFA53CB
     Copy CRC FAFA53CB
     Cannot be verified as accurate (confidence 10)  [5375C444], AccurateRip returned [517D1D50]
     Copy OK
Track  4
     Filename C:\Users\Adrien\Documents\EAC Rips\Grace - 2008 - Hall Of Mirrors\04 - Just look away.wav
     Peak level 100.0 %
     Track quality 100.0 %
     Test CRC 205B5FE5
     Copy CRC 205B5FE5
     Cannot be verified as accurate (confidence 10)  [CE4B45F7], AccurateRip returned [948A1764]
     Copy OK
Track  5
     Filename C:\Users\Adrien\Documents\EAC Rips\Grace - 2008 - Hall Of Mirrors\05 - Bang Bang.wav
     Pre-gap length  0:00:01.38
     Peak level 100.0 %
     Track quality 100.0 %
     Test CRC 19882FC3
     Copy CRC 19882FC3
     Cannot be verified as accurate (confidence 10)  [7FAD4FC3], AccurateRip returned [B01E3A9E]
     Copy OK
Track  6
     Filename C:\Users\Adrien\Documents\EAC Rips\Grace - 2008 - Hall Of Mirrors\06 - Gambler.wav
     Pre-gap length  0:00:01.28
     Peak level 100.0 %
     Track quality 100.0 %
     Test CRC 26896FE3
     Copy CRC 26896FE3
     Cannot be verified as accurate (confidence 10)  [4803C12B], AccurateRip returned [EFE68852]
     Copy OK
Track  7
     Filename C:\Users\Adrien\Documents\EAC Rips\Grace - 2008 - Hall Of Mirrors\07 - Working together.wav
     Pre-gap length  0:00:00.32
     Peak level 100.0 %
     Track quality 100.0 %
     Test CRC A7330017
     Copy CRC A7330017
     Cannot be verified as accurate (confidence 10)  [213DDA94], AccurateRip returned [DCBCC8EB]
     Copy OK
Track  8
     Filename C:\Users\Adrien\Documents\EAC Rips\Grace - 2008 - Hall Of Mirrors\08 - To the east.wav
     Peak level 76.5 %
     Track quality 100.0 %
     Test CRC 7C295D87
     Copy CRC 7C295D87
     Cannot be verified as accurate (confidence 10)  [BD1EF038], AccurateRip returned [EAD89FF6]
     Copy OK
Track  9
     Filename C:\Users\Adrien\Documents\EAC Rips\Grace - 2008 - Hall Of Mirrors\09 - Geisha.wav
     Peak level 100.0 %
     Track quality 99.9 %
     Test CRC 1847A712
     Copy CRC 1847A712
     Cannot be verified as accurate (confidence 10)  [96321E8A], AccurateRip returned [38B32508]
     Copy OK
Track 10
     Filename C:\Users\Adrien\Documents\EAC Rips\Grace - 2008 - Hall Of Mirrors\10 - Butterfly.wav
     Pre-gap length  0:00:00.44
     Peak level 100.0 %
     Track quality 100.0 %
     Test CRC FB008FBC
     Copy CRC FB008FBC
     Cannot be verified as accurate (confidence 10)  [1D832F93], AccurateRip returned [7440A08D]
     Copy OK
Track 11
     Filename C:\Users\Adrien\Documents\EAC Rips\Grace - 2008 - Hall Of Mirrors\11 - Go your away.wav
     Peak level 100.0 %
     Track quality 100.0 %
     Test CRC A2DFD90E
     Copy CRC A2DFD90E
     Cannot be verified as accurate (confidence 9)  [29E7AFFF], AccurateRip returned [595A1648]
     Copy OK
Track 12
     Filename C:\Users\Adrien\Documents\EAC Rips\Grace - 2008 - Hall Of Mirrors\12 - Who will tell them.wav
     Pre-gap length  0:00:00.30
     Peak level 100.0 %
     Track quality 100.0 %
     Test CRC 0E2CCAAE
     Copy CRC 0E2CCAAE
     Cannot be verified as accurate (confidence 10)  [763FC08F], AccurateRip returned [22306441]
     Copy OK
Track 13
     Filename C:\Users\Adrien\Documents\EAC Rips\Grace - 2008 - Hall Of Mirrors\13 - New day.wav
     Pre-gap length  0:00:00.37
     Peak level 100.0 %
     Track quality 100.0 %
     Test CRC FA6024BE
     Copy CRC FA6024BE
     Cannot be verified as accurate (confidence 10)  [98A52843], AccurateRip returned [D4D24449]
     Copy OK
Track 14
     Filename C:\Users\Adrien\Documents\EAC Rips\Grace - 2008 - Hall Of Mirrors\14 - All you'll need.wav
     Pre-gap length  0:00:04.61
     Peak level 100.0 %
     Track quality 100.0 %
     Test CRC D418ADB0
     Copy CRC D418ADB0
     Cannot be verified as accurate (confidence 10)  [95BCD538], AccurateRip returned [733939E9]
     Copy OK
No tracks could be verified as accurate
You may have a different pressing from the one(s) in the database
No errors occurred
End of status report
Код:
REM GENRE Pop
REM DATE 2008
REM DISCID BB0DC60F
REM COMMENT "ExactAudioCopy v0.99pb5"
FILE "01 - Lost.wav" WAVE
  TRACK 01 AUDIO
    INDEX 01 00:00:00
  TRACK 02 AUDIO
    INDEX 00 04:27:54
FILE "02 - Open road.wav" WAVE
    INDEX 01 00:00:00
FILE "03 - Imagine one day.wav" WAVE
  TRACK 03 AUDIO
    INDEX 01 00:00:00
FILE "04 - Just look away.wav" WAVE
  TRACK 04 AUDIO
    INDEX 01 00:00:00
  TRACK 05 AUDIO
    INDEX 00 04:58:39
FILE "05 - Bang Bang.wav" WAVE
    INDEX 01 00:00:00
  TRACK 06 AUDIO
    INDEX 00 03:39:34
FILE "06 - Gambler.wav" WAVE
    INDEX 01 00:00:00
  TRACK 07 AUDIO
    INDEX 00 03:48:24
FILE "07 - Working together.wav" WAVE
    INDEX 01 00:00:00
FILE "08 - To the east.wav" WAVE
  TRACK 08 AUDIO
    INDEX 01 00:00:00
FILE "09 - Geisha.wav" WAVE
  TRACK 09 AUDIO
    INDEX 01 00:00:00
  TRACK 10 AUDIO
    INDEX 00 03:16:33
FILE "10 - Butterfly.wav" WAVE
    INDEX 01 00:00:00
FILE "11 - Go your way.wav" WAVE
  TRACK 11 AUDIO
    INDEX 01 00:00:00
  TRACK 12 AUDIO
    INDEX 00 03:51:40
FILE "12 - Who will tell them.wav" WAVE
    INDEX 01 00:00:00
  TRACK 13 AUDIO
    INDEX 00 03:13:57
FILE "13 - New day.wav" WAVE
    INDEX 01 00:00:00
  TRACK 14 AUDIO
    INDEX 00 03:47:00
FILE "14 - All you'll need.wav" WAVE
    INDEX 01 00:00:00
Код:
AUDIOCHECKER v2.0 beta (build 457) - by Dester - opdester@freemail.hu
~~~~~~~~~~~~~~~~~~~~~~~~~~~~~~~~~~
-=== DO NOT EDIT THIS FILE! ===-
Path: ...\Grace - Hall Of Mirrors (2008)
01 -=- 01 - Lost.flac -=- CDDA (100%)
02 -=- 02 - Open road.flac -=- CDDA (100%)
03 -=- 03 - Imagine one day.flac -=- CDDA (100%)
04 -=- 04 - Just look away.flac -=- CDDA (100%)
05 -=- 05 - Bang Bang.flac -=- CDDA (100%)
06 -=- 06 - Gambler.flac -=- CDDA (100%)
07 -=- 07 - Working together.flac -=- CDDA (100%)
08 -=- 08 - To the east.flac -=- CDDA (100%)
09 -=- 09 - Geisha.flac -=- CDDA (100%)
10 -=- 10 - Butterfly.flac -=- CDDA (100%)
11 -=- 11 - Go your away.flac -=- CDDA (100%)
12 -=- 12 - Who will tell them.flac -=- CDDA (100%)
13 -=- 13 - New day.flac -=- CDDA (100%)
14 -=- 14 - All you'll need.flac -=- CDDA (100%)
Summary 100.00% CDDA
202860708
GRACE “Hall Of Mirrors” (p) 2008 Universal
Блюз – сама жизнь. Он пестрит красками под стать нашему бытию. Его необъятное многообразие сродни мозаике с отражениями мириад человеческих душ, ликующих и томящихся, блуждающих и беснующихся. И не следует считать блюз символом вселенской тоски. Для исполнителя это уникальное средство воплощения самых интимных и потаенных переживаний. Среди них всегда есть место для тихого счастья, глубокой радости и неописуемого восторга. Ведь даже Игги Поп когда-то признавался, что на звучание его первой группы The Stooges самое большое влияние оказал именно блюз.
Американская певица Grace выросла в семье музыкантов, а воспитывалась в бесконечных странствиях между Америкой, Индией, Африкой и Европой. Путешествуя по миру, она неустанно впитывала информацию и училась у людей, которых встречала – от сенегальских музыкантов-рассказчиков до индийских суфиев.
Ее называют духовной дочерью Тины Тернер и Боба Марли. И если влияние Тернер, скорее, завуалировано, то воздействие Марли более чем ощутимо. Песни Grace напоминают молитвы, преисполненные надежды, выдержки и братской любви. «Hall Of Mirrors» – дебютный альбом певицы – это объяснение в любви молодой женщины, которая пытается «платить по долгам» за все то, чему научилась на своем жизненном пути. «Я пою блюз…», - утверждает Grace. И она определенно понимает, о чем говорит.
Открывающая диск камерная «Lost» наряду с изящной мелодией представляет эффектные распевки в духе госпел. «Open Road» раскачивает подобно старинному поезду, бороздящему пустынные американские прерии. Тут вполне приходятся к месту даже винильные скретчи. В «Imagine One Day» певица, наконец, впервые в полной мере использует ударные. Получилась замечательная афро-европейская пьеса, приправленная специями в духе реггей. «Just Look Away» и «Bang Bang» ближе всего к традиционным блюзу и реггей соответственно. Хотя в обоих композициях певица отнюдь не стремится к стилизации.
Чем дальше вглубь альбома, тем больше обнажается потрясающая музыкальность певицы. Помимо блюза и реггей, Grace искусно жонглирует фолком («Butterfly») и соул («Who Will Tell Them»). При этом каждый раз она оказывается на рубеже между сырой аутентичностью традиции и приторной современностью world-music. А истина, как известно, всегда где-то посредине.
Ее вокал сквозит многочисленными блю-тонами, а характерный субтон в балладах («All You’ll Need», «Sit Down Rock and Roll Man») пронизывает до мозга костей. У Grace очень трогательный французский акцент, что придает ее исполнению особый шарм. Она склонна рассказывать простые истории с глубоким подтекстом, вести очень понятные мелодии, поддерживаемые ощутимым ритмическим грувом. Грация ее музыки вполне соответствует «грации» ее имени. «Amazing Grace» – так называется старинный христианский гимн. Американка Грейс, бесспорно, восхитительна. Так же, как и ее дебютный диск.
(с) LoTus (http://music.com.ua)
Latabi Diouani - Percussion
Sly Johnson - Vocals, Beatbox
Phillipe Aglaé - Vocals
Jérome Degey - Guitar
Oz Fritz - Sound Engineer
Официальная страница - http://grace.artiste.universalmusic.fr/?lang=en
Инфо и видео - http://ctnmusic.com/2008/11/23/grace-hall-of-mirrors/
Правила, инструкции, FAQ!!!
Торрент  Добавлен [26 мар 2019, 19:13] Скачать торрент Магнет ссылка
Скачать торрент
[ Размер 14.17 КБ / Просмотров 1 ]

Статус
Проверен 
 
Размер  326.26 МБ
Приватный: Нет (DHT включён)
.torrent скачан  0
 


     Отправить личное сообщение
   
Страница 1 из 1
Показать сообщения за:  Поле сортировки  
Начать новую тему Ответить на тему


Сейчас этот форум просматривают: нет зарегистрированных пользователей и гости: 0


Вы не можете начинать темы
Вы не можете отвечать на сообщения
Вы не можете редактировать свои сообщения
Вы не можете удалять свои сообщения
Вы не можете добавлять вложения

Перейти:  
cron