Начать новую тему Ответить на тему
Статистика раздачи
Размер: 201.1 МБ | Добавлен: 15 май 2020, 16:39 | Скачали: 0
Сидеров: 0  [0 байт/сек]    Личеров: 0  [0 байт/сек]
Пред. тема | След. тема 

Автор
Сообщение

СообщениеДобавлено: 15 май 2020, 16:39 

Ответить с цитатой 

Joan Armatrading / Show Some Emotion
Жанр: Pop Rock, Soul, Classic Rock
Носитель: CD
Страна-производитель диска (релиза): EU
Год издания: 1997
Издатель (лейбл): A&M Records
Номер по каталогу: 394 663-2
Аудиокодек: FLAC (*.flac)
Тип рипа: tracks+.cue
Продолжительность: 00:37:19
Источник: israbox
Наличие сканов в содержимом раздачи: да
Треклист:
1 Woncha Come On Home
2 Show Some Emotion
3 Warm Love
4 Never Is Too Late
5 Peace In Mind
6 Opportunity
7 Mama Mercy
8 Get In The Sun
9 Willow
10 Kissin' And A Huggin'
Код:
X Lossless Decoder version 20170729 (150.3)
XLD extraction logfile from 2018-06-11 14:39:42 -0400
Joan Armatrading / Show Some Emotion [A&M Records CD 3273]
Used drive : PIONEER BD-RW   BDR-XD05 (revision 3.01)
Media type : Pressed CD
Ripper mode             : XLD Secure Ripper
Disable audio cache     : OK for the drive with a cache less than 1375KiB
Make use of C2 pointers : NO
Read offset correction  : 667
Max retry count         : 20
Gap status              : Analyzed, Appended (except HTOA)
TOC of the extracted CD
     Track |   Start  |  Length  | Start sector | End sector
    ---------------------------------------------------------
        1  | 00:00:33 | 02:39:70 |        33    |    12027
        2  | 02:40:28 | 03:32:72 |     12028    |    27999
        3  | 06:13:25 | 03:04:05 |     28000    |    41804
        4  | 09:17:30 | 05:34:35 |     41805    |    66889
        5  | 14:51:65 | 03:18:73 |     66890    |    81812
        6  | 18:10:63 | 03:25:02 |     81813    |    97189
        7  | 21:35:65 | 02:50:00 |     97190    |   109939
        8  | 24:25:65 | 03:21:40 |    109940    |   125054
        9  | 27:47:30 | 04:55:68 |    125055    |   147247
       10  | 32:43:23 | 04:41:72 |    147248    |   168394
List of alternate offset correction values
        #  | Absolute | Relative | Confidence
    ------------------------------------------
        1  |    703   |     36   |     26
AccurateRip Summary (DiscID: 000d673d-006c8097-9d08c50a)
    Track 01 : OK (v1+v2, confidence 24/26, with different offset)
    Track 02 : OK (v1+v2, confidence 24/26, with different offset)
    Track 03 : OK (v1+v2, confidence 25/27, with different offset)
    Track 04 : OK (v1+v2, confidence 26/28, with different offset)
    Track 05 : OK (v1+v2, confidence 25/27, with different offset)
    Track 06 : OK (v1+v2, confidence 26/28, with different offset)
    Track 07 : OK (v1+v2, confidence 25/27, with different offset)
    Track 08 : OK (v1+v2, confidence 25/27, with different offset)
    Track 09 : OK (v1+v2, confidence 26/28, with different offset)
    Track 10 : OK (v1+v2, confidence 26/28, with different offset)
        ->All tracks accurately ripped.
All Tracks
    Album gain               : -0.20 dB
    Peak                     : 1.000000
    Statistics
        Read error                           : 0
        Jitter error (maybe fixed)           : 0
        Retry sector count                   : 0
        Damaged sector count                 : 0
Track 01
    Filename : /XLD Rips/01 Joan Armatrading - Woncha Come On Home.flac
    Pre-gap length : 00:02:33
    Track gain               : 1.17 dB
    Peak                     : 0.732422
    CRC32 hash (test run)    : AE0EE225
    CRC32 hash               : AE0EE225
    CRC32 hash (skip zero)   : 0CB3B107
    AccurateRip v1 signature : CEF29C5D (5DC80B39 w/correction)
    AccurateRip v2 signature : 99FB79DD (28735434 w/correction)
        ->Accurately ripped with different offset (v1+v2, confidence 3+21/26, offset +36)
    Statistics
        Read error                           : 0
        Jitter error (maybe fixed)           : 0
        Retry sector count                   : 0
        Damaged sector count                 : 0
Track 02
    Filename : /XLD Rips/02 Joan Armatrading - Show Some Emotion.flac
    Track gain               : -1.51 dB
    Peak                     : 1.000000
    CRC32 hash (test run)    : 4A347F45
    CRC32 hash               : 4A347F45
    CRC32 hash (skip zero)   : 07C149D1
    AccurateRip v1 signature : 596C8CA8 (D6EC8B06 w/correction)
    AccurateRip v2 signature : 646075A7 (DFB99494 w/correction)
        ->Accurately ripped with different offset (v1+v2, confidence 3+21/26, offset +36)
    Statistics
        Read error                           : 0
        Jitter error (maybe fixed)           : 0
        Retry sector count                   : 0
        Damaged sector count                 : 0
Track 03
    Filename : /XLD Rips/03 Joan Armatrading - Warm Love.flac
    Pre-gap length : 00:02:72
    Track gain               : -0.32 dB
    Peak                     : 1.000000
    CRC32 hash (test run)    : 4D120C0C
    CRC32 hash               : 4D120C0C
    CRC32 hash (skip zero)   : 550831A6
    AccurateRip v1 signature : E5E517B5 (66A28EED w/correction)
    AccurateRip v2 signature : 920776DF (127C8BCD w/correction)
        ->Accurately ripped with different offset (v1+v2, confidence 4+21/27, offset +36)
    Statistics
        Read error                           : 0
        Jitter error (maybe fixed)           : 0
        Retry sector count                   : 0
        Damaged sector count                 : 0
Track 04
    Filename : /XLD Rips/04 Joan Armatrading - Never Is Too Late.flac
    Track gain               : -0.88 dB
    Peak                     : 1.000000
    CRC32 hash (test run)    : 184CB80D
    CRC32 hash               : 184CB80D
    CRC32 hash (skip zero)   : 4FE9B317
    AccurateRip v1 signature : 836AD174 (9827CEDE w/correction)
    AccurateRip v2 signature : 2A52D460 (438056F9 w/correction)
        ->Accurately ripped with different offset (v1+v2, confidence 4+22/28, offset +36)
    Statistics
        Read error                           : 0
        Jitter error (maybe fixed)           : 0
        Retry sector count                   : 0
        Damaged sector count                 : 0
Track 05
    Filename : /XLD Rips/05 Joan Armatrading - Peace In Mind.flac
    Pre-gap length : 00:03:72
    Track gain               : 0.03 dB
    Peak                     : 1.000000
    CRC32 hash (test run)    : 37163631
    CRC32 hash               : 37163631
    CRC32 hash (skip zero)   : A5A5383C
    AccurateRip v1 signature : 6AE86DE3 (9D0EB1F3 w/correction)
    AccurateRip v2 signature : 86E5AADB (BD471249 w/correction)
        ->Accurately ripped with different offset (v1+v2, confidence 4+21/27, offset +36)
    Statistics
        Read error                           : 0
        Jitter error (maybe fixed)           : 0
        Retry sector count                   : 0
        Damaged sector count                 : 0
Track 06
    Filename : /XLD Rips/06 Joan Armatrading - Opportunity.flac
    Track gain               : 1.73 dB
    Peak                     : 0.922821
    CRC32 hash (test run)    : 74D71127
    CRC32 hash               : 74D71127
    CRC32 hash (skip zero)   : 8F18132D
    AccurateRip v1 signature : 9CB2FB3C (9BD2F621 w/correction)
    AccurateRip v2 signature : 35A4B6C3 (33B59371 w/correction)
        ->Accurately ripped with different offset (v1+v2, confidence 4+22/28, offset +36)
    Statistics
        Read error                           : 0
        Jitter error (maybe fixed)           : 0
        Retry sector count                   : 0
        Damaged sector count                 : 0
Track 07
    Filename : /XLD Rips/07 Joan Armatrading - Mama Mercy.flac
    Track gain               : -0.29 dB
    Peak                     : 0.975220
    CRC32 hash (test run)    : 1D4ABD42
    CRC32 hash               : 1D4ABD42
    CRC32 hash (skip zero)   : 4FBA55CD
    AccurateRip v1 signature : C4060773 (29F73988 w/correction)
    AccurateRip v2 signature : 44B6442A (AC07E0A7 w/correction)
        ->Accurately ripped with different offset (v1+v2, confidence 4+21/27, offset +36)
    Statistics
        Read error                           : 0
        Jitter error (maybe fixed)           : 0
        Retry sector count                   : 0
        Damaged sector count                 : 0
Track 08
    Filename : /XLD Rips/08 Joan Armatrading - Get In The Sun.flac
    Pre-gap length : 00:02:45
    Track gain               : -0.58 dB
    Peak                     : 0.995148
    CRC32 hash (test run)    : F26F652E
    CRC32 hash               : F26F652E
    CRC32 hash (skip zero)   : B1ACC341
    AccurateRip v1 signature : F2C191A2 (86351B7D w/correction)
    AccurateRip v2 signature : 24B52496 (BC68578B w/correction)
        ->Accurately ripped with different offset (v1+v2, confidence 4+21/27, offset +36)
    Statistics
        Read error                           : 0
        Jitter error (maybe fixed)           : 0
        Retry sector count                   : 0
        Damaged sector count                 : 0
Track 09
    Filename : /XLD Rips/09 Joan Armatrading - Willow.flac
    Pre-gap length : 00:02:17
    Track gain               : 2.74 dB
    Peak                     : 0.815491
    CRC32 hash (test run)    : 94EEFACE
    CRC32 hash               : 94EEFACE
    CRC32 hash (skip zero)   : 4311DE6D
    AccurateRip v1 signature : BE198C15 (BD8C1958 w/correction)
    AccurateRip v2 signature : CBB2AD8D (CBDE579B w/correction)
        ->Accurately ripped with different offset (v1+v2, confidence 4+22/28, offset +36)
    Statistics
        Read error                           : 0
        Jitter error (maybe fixed)           : 0
        Retry sector count                   : 0
        Damaged sector count                 : 0
Track 10
    Filename : /XLD Rips/10 Joan Armatrading - Kissin' And A Huggin'.flac
    Pre-gap length : 00:02:35
    Track gain               : 0.01 dB
    Peak                     : 0.891083
    CRC32 hash (test run)    : 5B3354FD
    CRC32 hash               : 5B3354FD
    CRC32 hash (skip zero)   : 4F2C37A2
    AccurateRip v1 signature : 5866B836 (8681132F w/correction)
    AccurateRip v2 signature : 7B3EF58D (A2BC453A w/correction)
        ->Accurately ripped with different offset (v1+v2, confidence 4+22/28, offset +36)
    Statistics
        Read error                           : 0
        Jitter error (maybe fixed)           : 0
        Retry sector count                   : 0
        Damaged sector count                 : 0
No errors occurred
End of status report
-----BEGIN XLD SIGNATURE-----
4xAhcvD3S2tp1.Lc5tdPfxQMfXx_wwHlyY6fRm1.9yykfOtHKNh7UadRZ83vCYjMByzrGZ_gErH5.zxdqbsTCNrEfNT7ALCCRKe.Unq
-----END XLD SIGNATURE-----
Код:
TITLE "Show Some Emotion [A&M Records CD 3273]"
PERFORMER "Joan Armatrading"
CATALOG 0075021327320
REM GENRE "Rock"
REM DATE "1977"
REM DISCID 9D08C50A
REM REPLAYGAIN_ALBUM_GAIN -0.20 dB
REM REPLAYGAIN_ALBUM_PEAK 1.000000
FILE "01 Joan Armatrading - Woncha Come On Home.flac" WAVE
  TRACK 01 AUDIO
    TITLE "Woncha Come On Home"
    REM REPLAYGAIN_TRACK_GAIN 1.17 dB
    REM REPLAYGAIN_TRACK_PEAK 0.732422
    PREGAP 00:00:33
    INDEX 01 00:00:00
FILE "02 Joan Armatrading - Show Some Emotion.flac" WAVE
  TRACK 02 AUDIO
    TITLE "Show Some Emotion"
    REM REPLAYGAIN_TRACK_GAIN -1.51 dB
    REM REPLAYGAIN_TRACK_PEAK 1.000000
    INDEX 01 00:00:00
  TRACK 03 AUDIO
    TITLE "Warm Love"
    REM REPLAYGAIN_TRACK_GAIN -0.32 dB
    REM REPLAYGAIN_TRACK_PEAK 1.000000
    INDEX 00 03:30:00
FILE "03 Joan Armatrading - Warm Love.flac" WAVE
    INDEX 01 00:00:00
FILE "04 Joan Armatrading - Never Is Too Late.flac" WAVE
  TRACK 04 AUDIO
    TITLE "Never Is Too Late"
    REM REPLAYGAIN_TRACK_GAIN -0.88 dB
    REM REPLAYGAIN_TRACK_PEAK 1.000000
    INDEX 01 00:00:00
  TRACK 05 AUDIO
    TITLE "Peace In Mind"
    REM REPLAYGAIN_TRACK_GAIN 0.03 dB
    REM REPLAYGAIN_TRACK_PEAK 1.000000
    INDEX 00 05:30:38
FILE "05 Joan Armatrading - Peace In Mind.flac" WAVE
    INDEX 01 00:00:00
FILE "06 Joan Armatrading - Opportunity.flac" WAVE
  TRACK 06 AUDIO
    TITLE "Opportunity"
    REM REPLAYGAIN_TRACK_GAIN 1.73 dB
    REM REPLAYGAIN_TRACK_PEAK 0.922821
    INDEX 01 00:00:00
FILE "07 Joan Armatrading - Mama Mercy.flac" WAVE
  TRACK 07 AUDIO
    TITLE "Mama Mercy"
    REM REPLAYGAIN_TRACK_GAIN -0.29 dB
    REM REPLAYGAIN_TRACK_PEAK 0.975220
    INDEX 01 00:00:00
  TRACK 08 AUDIO
    TITLE "Get In The Sun"
    REM REPLAYGAIN_TRACK_GAIN -0.58 dB
    REM REPLAYGAIN_TRACK_PEAK 0.995148
    INDEX 00 02:47:30
FILE "08 Joan Armatrading - Get In The Sun.flac" WAVE
    INDEX 01 00:00:00
  TRACK 09 AUDIO
    TITLE "Willow"
    REM REPLAYGAIN_TRACK_GAIN 2.74 dB
    REM REPLAYGAIN_TRACK_PEAK 0.815491
    INDEX 00 03:19:23
FILE "09 Joan Armatrading - Willow.flac" WAVE
    INDEX 01 00:00:00
  TRACK 10 AUDIO
    TITLE "Kissin' And A Huggin'"
    REM REPLAYGAIN_TRACK_GAIN 0.01 dB
    REM REPLAYGAIN_TRACK_PEAK 0.891083
    INDEX 00 04:53:33
FILE "10 Joan Armatrading - Kissin' And A Huggin'.flac" WAVE
    INDEX 01 00:00:00
Правила, инструкции, FAQ!!!
Торрент  Добавлен [15 май 2020, 16:39] Скачать торрент Магнет ссылка
Скачать торрент
[ Размер 17.32 КБ / Просмотров 2 ]

Статус
Проверен 
 
Размер  201.1 МБ
Приватный: Нет (DHT включён)
.torrent скачан  0
 


     Отправить личное сообщение
   
Страница 1 из 1
Показать сообщения за:  Поле сортировки  
Начать новую тему Ответить на тему


Сейчас этот форум просматривают: нет зарегистрированных пользователей и гости: 0


Вы не можете начинать темы
Вы не можете отвечать на сообщения
Вы не можете редактировать свои сообщения
Вы не можете удалять свои сообщения
Вы не можете добавлять вложения

Перейти:  
cron