Начать новую тему Ответить на тему
Статистика раздачи
Размер: 752.18 МБ | Добавлен: 26 мар 2019, 19:29 | Скачали: 1
Сидеров: 2  [0 байт/сек]    Личеров: 1  [0 байт/сек]
Пред. тема | След. тема 

Автор
Сообщение

СообщениеДобавлено: 26 мар 2019, 19:29 

Ответить с цитатой 

The Cats / Greatest Hits Of The Cats - Vol 1 & 2
Жанр: Pop Rock, Soft Rock
Носитель: CD
Страна-производитель диска: West Germany
Год издания: 1988
Издатель (лейбл): EVA
Номер по каталогу: 7913062
Страна: Netherlands
Аудиокодек: FLAC (*.flac)
Тип рипа: tracks
Битрейт аудио: lossless
Продолжительность: 2:00:21
Источник (релизер): DC++
Наличие сканов в содержимом раздачи: да
Треклист:
Vol1:
1. What A Crazy Life
2. Vive L'Amour
3. Sure He's A Cat
4. What's The World Coming To
5. Turn Around And Start Again
6. Times Where When
7. Lea
8. Why
9. Scarlet Ribbons
10. Marian
11. Magic Mystery Morning
12. Where Have I Been Wrong
13. Don't Waste Your Time
14. One Way Wind
15. Let's Dance
16. Vaya Con Dios
17. There Has Been A Time
18. Let's Go Together
Vol2:
1. Maribaja
2. Rock 'N Roll
3. Be My Day
4. Come Sunday
5. Hard To Be Friends
6. Like A Spanish Song
7. We Should Be Together
8. Romance
9. Save The Last Dance For Me
10. Cindy
11. Lucky Star
12. She Was Too Young
13. The End Of The Show
14. La Diligence
15. Stay In My Life
16. Love Is A Golden Ring
17. Lovers Don't Talk
18. She's So In Love
Код:
Exact Audio Copy V0.99 prebeta 4 from 23. January 2008
EAC extraction logfile from 28. February 2008, 20:59
The Cats / Greatest Hits of the Cats volume 1
Used drive  : PLEXTOR CD-R   PREMIUM2   Adapter: 5  ID: 0
Read mode               : Secure
Utilize accurate stream : Yes
Defeat audio cache      : No
Make use of C2 pointers : Yes
Read offset correction                      : 30
Overread into Lead-In and Lead-Out          : Yes
Fill up missing offset samples with silence : Yes
Delete leading and trailing silent blocks   : No
Null samples used in CRC calculations       : Yes
Used interface                              : Native Win32 interface for Win NT & 2000
Gap handling                                : Appended to previous track
Used output format              : User Defined Encoder
Selected bitrate                : 1024 kBit/s
Quality                         : High
Add ID3 tag                     : No
Command line compressor         : C:\Windows\System32\cmd.exe
Additional command line options : /c ""C:\Program Files\Exact Audio Copy\flac.bat" "%a" "%t" "%g" "%y" "%n" "%m" "%e" %s %b"
TOC of the extracted CD
     Track |   Start  |  Length  | Start sector | End sector
    ---------------------------------------------------------
        1  |  0:00.00 |  2:33.35 |         0    |    11509
        2  |  2:33.35 |  2:00.70 |     11510    |    20579
        3  |  4:34.30 |  2:30.35 |     20580    |    31864
        4  |  7:04.65 |  3:29.52 |     31865    |    47591
        5  | 10:34.42 |  2:59.38 |     47592    |    61054
        6  | 13:34.05 |  3:06.65 |     61055    |    75069
        7  | 16:40.70 |  3:36.17 |     75070    |    91286
        8  | 20:17.12 |  4:00.60 |     91287    |   109346
        9  | 24:17.72 |  3:18.00 |    109347    |   124196
       10  | 27:35.72 |  3:52.28 |    124197    |   141624
       11  | 31:28.25 |  2:37.55 |    141625    |   153454
       12  | 34:06.05 |  4:14.07 |    153455    |   172511
       13  | 38:20.12 |  2:31.15 |    172512    |   183851
       14  | 40:51.27 |  3:37.33 |    183852    |   200159
       15  | 44:28.60 |  3:24.02 |    200160    |   215461
       16  | 47:52.62 |  3:24.10 |    215462    |   230771
       17  | 51:16.72 |  3:51.38 |    230772    |   248134
       18  | 55:08.35 |  3:40.72 |    248135    |   264706
Track  1
     Filename D:\Rips\The Cats (1988) Greatest Hits Of The Cats Vol.1\01 - What A Crazy Life.wav
     Pre-gap length  0:00:02.00
     Peak level 76.9 %
     Track quality 100.0 %
     Test CRC 8B46EBFE
     Copy CRC 8B46EBFE
     Track not present in AccurateRip database
     Copy OK
Track  2
     Filename D:\Rips\The Cats (1988) Greatest Hits Of The Cats Vol.1\02 - Vive l'Amour.wav
     Pre-gap length  0:00:02.22
     Peak level 78.0 %
     Track quality 100.0 %
     Test CRC 5F478D7D
     Copy CRC 5F478D7D
     Track not present in AccurateRip database
     Copy OK
Track  3
     Filename D:\Rips\The Cats (1988) Greatest Hits Of The Cats Vol.1\03 - Sure He's A Cat.wav
     Pre-gap length  0:00:02.18
     Peak level 72.7 %
     Track quality 99.8 %
     Test CRC 229AFBDD
     Copy CRC 229AFBDD
     Track not present in AccurateRip database
     Copy OK
Track  4
     Filename D:\Rips\The Cats (1988) Greatest Hits Of The Cats Vol.1\04 - What's The World Coming To.wav
     Pre-gap length  0:00:02.13
     Peak level 70.5 %
     Track quality 100.0 %
     Test CRC 3593ADCF
     Copy CRC 3593ADCF
     Track not present in AccurateRip database
     Copy OK
Track  5
     Filename D:\Rips\The Cats (1988) Greatest Hits Of The Cats Vol.1\05 - Turn Around And Start Again.wav
     Pre-gap length  0:00:01.45
     Peak level 87.8 %
     Track quality 100.0 %
     Test CRC FA24BD92
     Copy CRC FA24BD92
     Track not present in AccurateRip database
     Copy OK
Track  6
     Filename D:\Rips\The Cats (1988) Greatest Hits Of The Cats Vol.1\06 - Times Where When.wav
     Pre-gap length  0:00:00.62
     Peak level 73.3 %
     Track quality 100.0 %
     Test CRC 438F6EC1
     Copy CRC 438F6EC1
     Track not present in AccurateRip database
     Copy OK
Track  7
     Filename D:\Rips\The Cats (1988) Greatest Hits Of The Cats Vol.1\07 - Lea.wav
     Pre-gap length  0:00:03.45
     Peak level 69.2 %
     Track quality 100.0 %
     Test CRC 8D58C3D3
     Copy CRC 8D58C3D3
     Track not present in AccurateRip database
     Copy OK
Track  8
     Filename D:\Rips\The Cats (1988) Greatest Hits Of The Cats Vol.1\08 - Why.wav
     Pre-gap length  0:00:01.47
     Peak level 72.5 %
     Track quality 100.0 %
     Test CRC 7B5187ED
     Copy CRC 7B5187ED
     Track not present in AccurateRip database
     Copy OK
Track  9
     Filename D:\Rips\The Cats (1988) Greatest Hits Of The Cats Vol.1\09 - Scarlet Ribbons.wav
     Pre-gap length  0:00:03.11
     Peak level 61.0 %
     Track quality 100.0 %
     Test CRC 501C5607
     Copy CRC 501C5607
     Track not present in AccurateRip database
     Copy OK
Track 10
     Filename D:\Rips\The Cats (1988) Greatest Hits Of The Cats Vol.1\10 - Marian.wav
     Pre-gap length  0:00:02.13
     Peak level 65.9 %
     Track quality 99.9 %
     Test CRC 4CEBFE1E
     Copy CRC 4CEBFE1E
     Track not present in AccurateRip database
     Copy OK
Track 11
     Filename D:\Rips\The Cats (1988) Greatest Hits Of The Cats Vol.1\11 - Magical Mystery Morning.wav
     Pre-gap length  0:00:06.66
     Peak level 64.5 %
     Track quality 100.0 %
     Test CRC F0AC0944
     Copy CRC F0AC0944
     Track not present in AccurateRip database
     Copy OK
Track 12
     Filename D:\Rips\The Cats (1988) Greatest Hits Of The Cats Vol.1\12 - Where Have I Been Wrong.wav
     Pre-gap length  0:00:02.11
     Peak level 73.3 %
     Track quality 100.0 %
     Test CRC 218EF17A
     Copy CRC 218EF17A
     Track not present in AccurateRip database
     Copy OK
Track 13
     Filename D:\Rips\The Cats (1988) Greatest Hits Of The Cats Vol.1\13 - Don't Waste Your Time.wav
     Pre-gap length  0:00:01.55
     Peak level 75.7 %
     Track quality 100.0 %
     Test CRC 1E7CD85B
     Copy CRC 1E7CD85B
     Track not present in AccurateRip database
     Copy OK
Track 14
     Filename D:\Rips\The Cats (1988) Greatest Hits Of The Cats Vol.1\14 - One Way Wind.wav
     Pre-gap length  0:00:02.41
     Peak level 86.2 %
     Track quality 100.0 %
     Test CRC 466036BF
     Copy CRC 466036BF
     Track not present in AccurateRip database
     Copy OK
Track 15
     Filename D:\Rips\The Cats (1988) Greatest Hits Of The Cats Vol.1\15 - Let's Dance.wav
     Pre-gap length  0:00:02.63
     Peak level 80.9 %
     Track quality 100.0 %
     Test CRC 12AC4236
     Copy CRC 12AC4236
     Track not present in AccurateRip database
     Copy OK
Track 16
     Filename D:\Rips\The Cats (1988) Greatest Hits Of The Cats Vol.1\16 - Vaya Con Dios.wav
     Pre-gap length  0:00:03.19
     Peak level 67.3 %
     Track quality 100.0 %
     Test CRC 91A7EC25
     Copy CRC 91A7EC25
     Track not present in AccurateRip database
     Copy OK
Track 17
     Filename D:\Rips\The Cats (1988) Greatest Hits Of The Cats Vol.1\17 - There Has Been A Time.wav
     Pre-gap length  0:00:02.15
     Peak level 81.6 %
     Track quality 100.0 %
     Test CRC 6373FFB5
     Copy CRC 6373FFB5
     Track not present in AccurateRip database
     Copy OK
Track 18
     Filename D:\Rips\The Cats (1988) Greatest Hits Of The Cats Vol.1\18 - Let's Go Together.wav
     Pre-gap length  0:00:02.58
     Peak level 86.3 %
     Track quality 100.0 %
     Test CRC C69C83D4
     Copy CRC C69C83D4
     Track not present in AccurateRip database
     Copy OK
None of the tracks are present in the AccurateRip database
No errors occurred
End of status report
Код:
Exact Audio Copy V0.99 prebeta 4 from 23. January 2008
EAC extraction logfile from 1. March 2008, 10:08
The Cats Cats / he greatest Hits of the Cats volume 2
Used drive  : PLEXTOR CD-R   PREMIUM2   Adapter: 5  ID: 0
Read mode               : Secure
Utilize accurate stream : Yes
Defeat audio cache      : No
Make use of C2 pointers : Yes
Read offset correction                      : 30
Overread into Lead-In and Lead-Out          : Yes
Fill up missing offset samples with silence : Yes
Delete leading and trailing silent blocks   : No
Null samples used in CRC calculations       : Yes
Used interface                              : Native Win32 interface for Win NT & 2000
Gap handling                                : Not detected, thus appended to previous track
Used output format : Internal WAV Routines
Sample format      : 44.100 Hz; 16 Bit; Stereo
TOC of the extracted CD
     Track |   Start  |  Length  | Start sector | End sector
    ---------------------------------------------------------
        1  |  0:00.00 |  3:10.52 |         0    |    14301
        2  |  3:10.52 |  4:57.53 |     14302    |    36629
        3  |  8:08.30 |  2:59.52 |     36630    |    50106
        4  | 11:08.07 |  2:26.45 |     50107    |    61101
        5  | 13:34.52 |  3:34.28 |     61102    |    77179
        6  | 17:09.05 |  3:01.55 |     77180    |    90809
        7  | 20:10.60 |  3:06.40 |     90810    |   104799
        8  | 23:17.25 |  3:03.22 |    104800    |   118546
        9  | 26:20.47 |  3:04.40 |    118547    |   132386
       10  | 29:25.12 |  3:39.55 |    132387    |   148866
       11  | 33:04.67 |  3:04.58 |    148867    |   162724
       12  | 36:09.50 |  3:40.35 |    162725    |   179259
       13  | 39:50.10 |  4:16.45 |    179260    |   198504
       14  | 44:06.55 |  3:26.45 |    198505    |   213999
       15  | 47:33.25 |  3:46.40 |    214000    |   230989
       16  | 51:19.65 |  2:52.02 |    230990    |   243891
       17  | 54:11.67 |  3:40.13 |    243892    |   260404
       18  | 57:52.05 |  3:39.62 |    260405    |   276891
Track  1
     Filename D:\Rips\The Cats (1988) Greatest Hits Of The Cats Vol. 2\01 - maribaja - the cats.wav
     Peak level 82.5 %
     Track quality 100.0 %
     Test CRC 7ADAA8B3
     Copy CRC 7ADAA8B3
     Track not present in AccurateRip database
     Copy OK
Track  2
     Filename D:\Rips\The Cats (1988) Greatest Hits Of The Cats Vol. 2\02 - rock 'n roll - the cats.wav
     Peak level 75.7 %
     Track quality 99.9 %
     Test CRC E7D275C0
     Copy CRC E7D275C0
     Track not present in AccurateRip database
     Copy OK
Track  3
     Filename D:\Rips\The Cats (1988) Greatest Hits Of The Cats Vol. 2\03 - be my day - the cats.wav
     Peak level 68.9 %
     Track quality 100.0 %
     Test CRC 20F6103B
     Copy CRC 20F6103B
     Track not present in AccurateRip database
     Copy OK
Track  4
     Filename D:\Rips\The Cats (1988) Greatest Hits Of The Cats Vol. 2\04 - come sunday - the cats.wav
     Peak level 81.5 %
     Track quality 100.0 %
     Test CRC AFB579AC
     Copy CRC AFB579AC
     Track not present in AccurateRip database
     Copy OK
Track  5
     Filename D:\Rips\The Cats (1988) Greatest Hits Of The Cats Vol. 2\05 - hard to be friends - the cats.wav
     Peak level 98.0 %
     Track quality 100.0 %
     Test CRC 0F7E94F2
     Copy CRC 0F7E94F2
     Track not present in AccurateRip database
     Copy OK
Track  6
     Filename D:\Rips\The Cats (1988) Greatest Hits Of The Cats Vol. 2\06 - like a spanish song - the cats.wav
     Peak level 98.3 %
     Track quality 100.0 %
     Test CRC F95AD5CA
     Copy CRC F95AD5CA
     Track not present in AccurateRip database
     Copy OK
Track  7
     Filename D:\Rips\The Cats (1988) Greatest Hits Of The Cats Vol. 2\07 - we should be together - the cats.wav
     Peak level 98.9 %
     Track quality 100.0 %
     Test CRC B5ABC941
     Copy CRC B5ABC941
     Track not present in AccurateRip database
     Copy OK
Track  8
     Filename D:\Rips\The Cats (1988) Greatest Hits Of The Cats Vol. 2\08 - romance - the cats.wav
     Peak level 75.5 %
     Track quality 100.0 %
     Test CRC 95AA00CF
     Copy CRC 95AA00CF
     Track not present in AccurateRip database
     Copy OK
Track  9
     Filename D:\Rips\The Cats (1988) Greatest Hits Of The Cats Vol. 2\09 - save the last dance for me - the cats.wav
     Peak level 70.2 %
     Track quality 99.8 %
     Test CRC B42A43D9
     Copy CRC B42A43D9
     Track not present in AccurateRip database
     Copy OK
Track 10
     Filename D:\Rips\The Cats (1988) Greatest Hits Of The Cats Vol. 2\10 - cindy - the cats.wav
     Peak level 89.4 %
     Track quality 100.0 %
     Test CRC 5BF30AC9
     Copy CRC 5BF30AC9
     Track not present in AccurateRip database
     Copy OK
Track 11
     Filename D:\Rips\The Cats (1988) Greatest Hits Of The Cats Vol. 2\11 - lucky star - the cats.wav
     Peak level 86.7 %
     Track quality 100.0 %
     Test CRC F5BCC99B
     Copy CRC F5BCC99B
     Track not present in AccurateRip database
     Copy OK
Track 12
     Filename D:\Rips\The Cats (1988) Greatest Hits Of The Cats Vol. 2\12 - she was to yong - the cats.wav
     Peak level 86.4 %
     Track quality 100.0 %
     Test CRC 6A907EE6
     Copy CRC 6A907EE6
     Track not present in AccurateRip database
     Copy OK
Track 13
     Filename D:\Rips\The Cats (1988) Greatest Hits Of The Cats Vol. 2\13 - the end of the day - the cats.wav
     Peak level 80.4 %
     Track quality 100.0 %
     Test CRC FB3BDFC5
     Copy CRC FB3BDFC5
     Track not present in AccurateRip database
     Copy OK
Track 14
     Filename D:\Rips\The Cats (1988) Greatest Hits Of The Cats Vol. 2\14 - la diligence - the cats.wav
     Peak level 85.3 %
     Track quality 100.0 %
     Test CRC D50AB160
     Copy CRC D50AB160
     Track not present in AccurateRip database
     Copy OK
Track 15
     Filename D:\Rips\The Cats (1988) Greatest Hits Of The Cats Vol. 2\15 - stay in my life - the cats.wav
     Peak level 82.9 %
     Track quality 100.0 %
     Test CRC 14914CA1
     Copy CRC 14914CA1
     Track not present in AccurateRip database
     Copy OK
Track 16
     Filename D:\Rips\The Cats (1988) Greatest Hits Of The Cats Vol. 2\16 - love is a golden ring - the cats.wav
     Peak level 76.4 %
     Track quality 100.0 %
     Test CRC AA59BCFB
     Copy CRC AA59BCFB
     Track not present in AccurateRip database
     Copy OK
Track 17
     Filename D:\Rips\The Cats (1988) Greatest Hits Of The Cats Vol. 2\17 - lovers don't talk - the cats.wav
     Peak level 86.8 %
     Track quality 100.0 %
     Test CRC 5BC070E7
     Copy CRC 5BC070E7
     Track not present in AccurateRip database
     Copy OK
Track 18
     Filename D:\Rips\The Cats (1988) Greatest Hits Of The Cats Vol. 2\18 - she's so in love - the cats.wav
     Peak level 97.1 %
     Track quality 100.0 %
     Test CRC 10757547
     Copy CRC 10757547
     Track not present in AccurateRip database
     Copy OK
None of the tracks are present in the AccurateRip database
No errors occurred
End of status report
Код:
REM GENRE Pop
REM DATE 1988
REM DISCID EE0DC912
REM COMMENT "ExactAudioCopy v0.99pb4"
PERFORMER "The Cats"
TITLE "Greatest Hits of the Cats volume 1"
FILE "01 - What A Crazy Life.wav" WAVE
  TRACK 01 AUDIO
    TITLE "What A Crazy Life"
    PERFORMER "The Cats"
    INDEX 01 00:00:00
  TRACK 02 AUDIO
    TITLE "Vive l'Amour"
    PERFORMER "The Cats"
    INDEX 00 02:31:13
FILE "02 - Vive l'Amour.wav" WAVE
    INDEX 01 00:00:00
  TRACK 03 AUDIO
    TITLE "Sure He's A Cat"
    PERFORMER "The Cats"
    INDEX 00 01:58:52
FILE "03 - Sure He's A Cat.wav" WAVE
    INDEX 01 00:00:00
  TRACK 04 AUDIO
    TITLE "What's The World Coming To"
    PERFORMER "The Cats"
    INDEX 00 02:28:22
FILE "04 - What's The World Coming To.wav" WAVE
    INDEX 01 00:00:00
  TRACK 05 AUDIO
    TITLE "Turn Around And Start Again"
    PERFORMER "The Cats"
    INDEX 00 03:28:07
FILE "05 - Turn Around And Start Again.wav" WAVE
    INDEX 01 00:00:00
  TRACK 06 AUDIO
    TITLE "Times Where When"
    PERFORMER "The Cats"
    INDEX 00 02:58:51
FILE "06 - Times Where When.wav" WAVE
    INDEX 01 00:00:00
  TRACK 07 AUDIO
    TITLE "Lea"
    PERFORMER "The Cats"
    INDEX 00 03:03:20
FILE "07 - Lea.wav" WAVE
    INDEX 01 00:00:00
  TRACK 08 AUDIO
    TITLE "Why"
    PERFORMER "The Cats"
    INDEX 00 03:34:45
FILE "08 - Why.wav" WAVE
    INDEX 01 00:00:00
  TRACK 09 AUDIO
    TITLE "Scarlet Ribbons"
    PERFORMER "The Cats"
    INDEX 00 03:57:49
FILE "09 - Scarlet Ribbons.wav" WAVE
    INDEX 01 00:00:00
  TRACK 10 AUDIO
    TITLE "Marian"
    PERFORMER "The Cats"
    INDEX 00 03:15:62
FILE "10 - Marian.wav" WAVE
    INDEX 01 00:00:00
  TRACK 11 AUDIO
    TITLE "Magical Mystery Morning"
    PERFORMER "The Cats"
    INDEX 00 03:45:37
FILE "11 - Magical Mystery Morning.wav" WAVE
    INDEX 01 00:00:00
  TRACK 12 AUDIO
    TITLE "Where Have I Been Wrong"
    PERFORMER "The Cats"
    INDEX 00 02:35:44
FILE "12 - Where Have I Been Wrong.wav" WAVE
    INDEX 01 00:00:00
  TRACK 13 AUDIO
    TITLE "Don't Waste Your Time"
    PERFORMER "The Cats"
    INDEX 00 04:12:27
FILE "13 - Don't Waste Your Time.wav" WAVE
    INDEX 01 00:00:00
  TRACK 14 AUDIO
    TITLE "One Way Wind"
    PERFORMER "The Cats"
    INDEX 00 02:28:49
FILE "14 - One Way Wind.wav" WAVE
    INDEX 01 00:00:00
  TRACK 15 AUDIO
    TITLE "Let's Dance"
    PERFORMER "The Cats"
    INDEX 00 03:34:45
FILE "15 - Let's Dance.wav" WAVE
    INDEX 01 00:00:00
  TRACK 16 AUDIO
    TITLE "Vaya Con Dios"
    PERFORMER "The Cats"
    INDEX 00 03:20:58
FILE "16 - Vaya Con Dios.wav" WAVE
    INDEX 01 00:00:00
  TRACK 17 AUDIO
    TITLE "There Has Been A Time"
    PERFORMER "The Cats"
    INDEX 00 03:21:70
FILE "17 - There Has Been A Time.wav" WAVE
    INDEX 01 00:00:00
  TRACK 18 AUDIO
    TITLE "Let's Go Together"
    PERFORMER "The Cats"
    INDEX 00 03:48:55
FILE "18 - Let's Go Together.wav" WAVE
    INDEX 01 00:00:00
Код:
REM GENRE "Easy Listening"
REM DATE 1988
REM DISCID 040E6B12
REM COMMENT "ExactAudioCopy v0.99pb4"
PERFORMER "The Cats Cats"
TITLE "he greatest Hits of the Cats volume 2"
FILE "01 - maribaja - the cats.wav" WAVE
  TRACK 01 AUDIO
    TITLE "maribaja - the cats"
    PERFORMER "The Cats Cats"
    INDEX 01 00:00:00
  TRACK 02 AUDIO
    TITLE "rock 'n roll - the cats"
    PERFORMER "The Cats Cats"
    INDEX 00 03:06:64
FILE "02 - rock 'n roll - the cats.wav" WAVE
    INDEX 01 00:00:00
  TRACK 03 AUDIO
    TITLE "be my day - the cats"
    PERFORMER "The Cats Cats"
    INDEX 00 04:53:57
FILE "03 - be my day - the cats.wav" WAVE
    INDEX 01 00:00:00
  TRACK 04 AUDIO
    TITLE "come sunday - the cats"
    PERFORMER "The Cats Cats"
    INDEX 00 02:57:32
FILE "04 - come sunday - the cats.wav" WAVE
    INDEX 01 00:00:00
  TRACK 05 AUDIO
    TITLE "hard to be friends - the cats"
    PERFORMER "The Cats Cats"
    INDEX 00 02:24:22
FILE "05 - hard to be friends - the cats.wav" WAVE
    INDEX 01 00:00:00
  TRACK 06 AUDIO
    TITLE "like a spanish song - the cats"
    PERFORMER "The Cats Cats"
    INDEX 00 03:31:39
FILE "06 - like a spanish song - the cats.wav" WAVE
    INDEX 01 00:00:00
  TRACK 07 AUDIO
    TITLE "we should be together - the cats"
    PERFORMER "The Cats Cats"
    INDEX 00 02:58:36
FILE "07 - we should be together - the cats.wav" WAVE
    INDEX 01 00:00:00
  TRACK 08 AUDIO
    TITLE "romance - the cats"
    PERFORMER "The Cats Cats"
    INDEX 00 03:03:05
FILE "08 - romance - the cats.wav" WAVE
    INDEX 01 00:00:00
  TRACK 09 AUDIO
    TITLE "save the last dance for me - the cats"
    PERFORMER "The Cats Cats"
    INDEX 00 03:00:29
FILE "09 - save the last dance for me - the cats.wav" WAVE
    INDEX 01 00:00:00
  TRACK 10 AUDIO
    TITLE "cindy - the cats"
    PERFORMER "The Cats Cats"
    INDEX 00 03:03:04
FILE "10 - cindy - the cats.wav" WAVE
    INDEX 01 00:00:00
  TRACK 11 AUDIO
    TITLE "lucky star - the cats"
    PERFORMER "The Cats Cats"
    INDEX 00 03:37:03
FILE "11 - lucky star - the cats.wav" WAVE
    INDEX 01 00:00:00
  TRACK 12 AUDIO
    TITLE "she was to yong - the cats"
    PERFORMER "The Cats Cats"
    INDEX 00 03:02:68
FILE "12 - she was to yong - the cats.wav" WAVE
    INDEX 01 00:00:00
  TRACK 13 AUDIO
    TITLE "the end of the show - the cats"
    PERFORMER "The Cats Cats"
    INDEX 00 03:38:43
FILE "13 - the end of the show - the cats.wav" WAVE
    INDEX 01 00:00:00
  TRACK 14 AUDIO
    TITLE "la diligence - the cats"
    PERFORMER "The Cats Cats"
    INDEX 00 04:13:61
FILE "14 - la diligence - the cats.wav" WAVE
    INDEX 01 00:00:00
  TRACK 15 AUDIO
    TITLE "stay in my life - the cats"
    PERFORMER "The Cats Cats"
    INDEX 00 03:24:36
FILE "15 - stay in my life - the cats.wav" WAVE
    INDEX 01 00:00:00
  TRACK 16 AUDIO
    TITLE "love is a golden ring - the cats"
    PERFORMER "The Cats Cats"
    INDEX 00 03:44:59
FILE "16 - love is a golden ring - the cats.wav" WAVE
    INDEX 01 00:00:00
  TRACK 17 AUDIO
    TITLE "lovers don't talk - the cats"
    PERFORMER "The Cats Cats"
    INDEX 00 02:49:43
FILE "17 - lovers don't talk - the cats.wav" WAVE
    INDEX 01 00:00:00
  TRACK 18 AUDIO
    TITLE "she's so in love - the cats"
    PERFORMER "The Cats Cats"
    INDEX 00 03:37:67
FILE "18 - she's so in love - the cats.wav" WAVE
    INDEX 01 00:00:00
Код:
AUDIOCHECKER v2.0 beta (build 457) - by Dester - opdester@freemail.hu
~~~~~~~~~~~~~~~~~~~~~~~~~~~~~~~~~~
-=== DO NOT EDIT THIS FILE! ===-
Path: ...\1988 - Greatest Hits Of The Cats Vol. 1
01 -=- 01 - What A Crazy Life.flac -=- CDDA (100%)
02 -=- 02 - Vive l'Amour.flac -=- CDDA (99%)
03 -=- 03 - Sure He's A Cat.flac -=- CDDA (100%)
04 -=- 04 - What's The World Coming To.flac -=- CDDA (100%)
05 -=- 05 - Turn Around And Start Again.flac -=- CDDA (99%)
06 -=- 06 - Times Where When.flac -=- CDDA (100%)
07 -=- 07 - Lea.flac -=- CDDA (99%)
08 -=- 08 - Why.flac -=- CDDA (100%)
09 -=- 09 - Scarlet Ribbons.flac -=- CDDA (100%)
10 -=- 10 - Marian.flac -=- CDDA (100%)
11 -=- 11 - Magical Mystery Morning.flac -=- CDDA (100%)
12 -=- 12 - Where Have I Been Wrong.flac -=- CDDA (100%)
13 -=- 13 - Don't Waste Your Time.flac -=- CDDA (100%)
14 -=- 14 - One Way Wind.flac -=- CDDA (100%)
15 -=- 15 - Let's Dance.flac -=- CDDA (100%)
16 -=- 16 - Vaya Con Dios.flac -=- CDDA (100%)
17 -=- 17 - There Has Been A Time.flac -=- CDDA (99%)
18 -=- 18 - Let's Go Together.flac -=- CDDA (100%)
Summary 99,78% CDDA
180435860
Код:
AUDIOCHECKER v2.0 beta (build 457) - by Dester - opdester@freemail.hu
~~~~~~~~~~~~~~~~~~~~~~~~~~~~~~~~~~
-=== DO NOT EDIT THIS FILE! ===-
Path: ...\1988 - Greatest Hits Of The Cats Vol. 2
01 -=- 01 - maribaja - the cats.flac -=- CDDA (100%)
02 -=- 02 - rock 'n roll - the cats.flac -=- CDDA (100%)
03 -=- 03 - be my day - the cats.flac -=- CDDA (100%)
04 -=- 04 - come sunday - the cats.flac -=- CDDA (100%)
05 -=- 05 - hard to be friends - the cats.flac -=- CDDA (99%)
06 -=- 06 - like a spanish song - the cats.flac -=- CDDA (99%)
07 -=- 07 - we should be together - the cats.flac -=- CDDA (99%)
08 -=- 08 - romance - the cats.flac -=- CDDA (100%)
09 -=- 09 - save the last dance for me - the cats.flac -=- CDDA (100%)
10 -=- 10 - cindy - the cats.flac -=- CDDA (100%)
11 -=- 11 - lucky star - the cats.flac -=- CDDA (100%)
12 -=- 12 - she was to yong - the cats.flac -=- CDDA (100%)
13 -=- 13 - the end of the show - the cats.flac -=- CDDA (100%)
14 -=- 14 - la diligence - the cats.flac -=- CDDA (99%)
15 -=- 15 - stay in my life - the cats.flac -=- CDDA (100%)
16 -=- 16 - love is a golden ring - the cats.flac -=- CDDA (100%)
17 -=- 17 - lovers don't talk - the cats.flac -=- CDDA (100%)
18 -=- 18 - she's so in love - the cats.flac -=- CDDA (100%)
Summary 99,78% CDDA
149123796
Piet Veerman (Lead-Guitar, Vocals), Jaap Schilder (Rhythm-Guitar), Arnold Mühren (Bass-Guitar), Cees Veerman (Solo-Guitar, Vocals) and Theo Klouwer (Drums)
Правила, инструкции, FAQ!!!
Торрент  Добавлен [26 мар 2019, 19:29] Скачать торрент Магнет ссылка
Скачать торрент
[ Размер 20.18 КБ / Просмотров 1 ]

Статус
Проверен 
 
Размер  752.18 МБ
Приватный: Нет (DHT включён)
.torrent скачан  1
 


     Отправить личное сообщение
   
Страница 1 из 1
Показать сообщения за:  Поле сортировки  
Начать новую тему Ответить на тему


Сейчас этот форум просматривают: нет зарегистрированных пользователей и гости: 0


Вы не можете начинать темы
Вы не можете отвечать на сообщения
Вы не можете редактировать свои сообщения
Вы не можете удалять свои сообщения
Вы не можете добавлять вложения

Перейти:  
cron