Начать новую тему Ответить на тему
Статистика раздачи
Размер: 868.34 МБ | Добавлен: 26 мар 2019, 20:45 | Скачали: 0
Сидеров: 1  [0 байт/сек]    Личеров: 0  [0 байт/сек]
Пред. тема | След. тема 

Автор
Сообщение

СообщениеДобавлено: 26 мар 2019, 20:45 

Ответить с цитатой 

The Cats - Alle 40 Goed The Cats (2CD)
http://rutracker.org/tracker.php?nm=Alle%2040%20Goed#777Жанр: Pop-Rock, Soft Rock
Носитель: CD
Год издания: 2010
Издатель (лейбл): EMI Music Netherlands BV
Номер по каталогу: 5 099968 720629
Аудиокодек: FLAC (*.flac)
Тип рипа: tracks+.cue
Битрейт аудио: lossless
Источник (релизер): What.cd (StefMir)
Наличие сканов в содержимом раздачи: нет
 
Disc 1 [71:09][/spoiler]
01. Those Were The Days (3:55)
02. Lea (3:45)
03. Sure He's A Cat (2:33)
04. Marian (4:02)
05. Be My Day (3:00)
06. Without Your Love (2:49)
07. Where Have I Been Wrong (5:16)
08. Why (4:01)
09. Times Were When (3:13)
10. Let's Dance (3:28)
11. There Has Been A Time (4:40)
12. Magical Mystery Morning (2:39)
13. The End Of The Show (4:32)
14. Scarlet Ribbons (3:18)
15. Save The Last Dance For Me (3:10)
16. What A Crazy Life (2:37)
17. La Diligence (3:30)
18. Maribaja (3:10)
19. Lover's Don't Talk (3:39)
20. I Walk Through The Fields (3:53)
 [/spoiler] 
Disc 2 [72:37][/spoiler]
01. Rock & Roll (I Gave You The Best Years Of My Life) (4:58)
02. Turn Around And Start Again (3:02)
03. Vaya Con Dios (3:29)
04. One Way Wind (3:42)
05. Take Me With You (3:00)
06. My Friend Joe (3:00)
07. Let's Go Together (3:45)
08. Jukebox (2:52)
09. A Letter (3:34)
10. Country Woman (3:10)
11. Come Sunday (2:33)
12. Cindy (3:49)
13. Let's Follow The Sun (3:09)
14. The Best Years Of My Life (3:46)
15. If You'll Be My Woman (3:51)
16. Love Like Yours (3:59)
17. Dreams (6:41)
18. I Gotta Know What's Going On (2:35)
19. Trying To Explain (4:22)
20. Mandy My Dear (3:20)
 [/spoiler]
 
Код:
Exact Audio Copy V0.99 prebeta 5 from 4. May 2009
EAC extraction logfile from 15. October 2010, 17:32
Cats - 2010 - Alle 40 Goed CD1
Used drive  : HL-DT-STDVDRAM GSA-T40N   Adapter: 0  ID: 0
Read mode               : Secure
Utilize accurate stream : Yes
Defeat audio cache      : Yes
Make use of C2 pointers : No
Read offset correction                      : 667
Overread into Lead-In and Lead-Out          : No
Fill up missing offset samples with silence : Yes
Delete leading and trailing silent blocks   : No
Null samples used in CRC calculations       : Yes
Used interface                              : Native Win32 interface for Win NT & 2000
Gap handling                                : Appended to previous track
Used output format : Internal WAV Routines
Sample format      : 44.100 Hz; 16 Bit; Stereo
TOC of the extracted CD
     Track |   Start  |  Length  | Start sector | End sector
    ---------------------------------------------------------
        1  |  0:00.00 |  3:54.40 |         0    |    17589
        2  |  3:54.40 |  3:45.00 |     17590    |    34464
        3  |  7:39.40 |  2:33.27 |     34465    |    45966
        4  | 10:12.67 |  4:02.10 |     45967    |    64126
        5  | 14:15.02 |  2:59.48 |     64127    |    77599
        6  | 17:14.50 |  2:48.72 |     77600    |    90271
        7  | 20:03.47 |  5:15.69 |     90272    |   113965
        8  | 25:19.41 |  4:01.32 |    113966    |   132072
        9  | 29:20.73 |  3:13.14 |    132073    |   146561
       10  | 32:34.12 |  3:28.22 |    146562    |   162183
       11  | 36:02.34 |  4:39.61 |    162184    |   183169
       12  | 40:42.20 |  2:38.61 |    183170    |   195080
       13  | 43:21.06 |  4:32.01 |    195081    |   215481
       14  | 47:53.07 |  3:18.34 |    215482    |   230365
       15  | 51:11.41 |  3:09.66 |    230366    |   244606
       16  | 54:21.32 |  2:36.38 |    244607    |   256344
       17  | 56:57.70 |  3:30.12 |    256345    |   272106
       18  | 60:28.07 |  3:09.41 |    272107    |   286322
       19  | 63:37.48 |  3:39.16 |    286323    |   302763
       20  | 67:16.64 |  3:52.40 |    302764    |   320203
Track  1
     Filename D:\CD-Rips\Cats - 2010 - Alle 40 Goed CD1\01 - Cats - Those Were The Days [2006].flac
     Pre-gap length  0:00:02.00
     Peak level 92.2 %
     Track quality 100.0 %
     Test CRC DE4119AD
     Copy CRC DE4119AD
     Accurately ripped (confidence 2)  [7E77FD6D]
     Copy OK
Track  2
     Filename D:\CD-Rips\Cats - 2010 - Alle 40 Goed CD1\02 - Cats - Lea [1968].flac
     Pre-gap length  0:00:01.80
     Peak level 88.4 %
     Track quality 100.0 %
     Test CRC DE21E327
     Copy CRC DE21E327
     Accurately ripped (confidence 2)  [D6A9A6F5]
     Copy OK
Track  3
     Filename D:\CD-Rips\Cats - 2010 - Alle 40 Goed CD1\03 - Cats - Sure He's A Cat [1967].flac
     Pre-gap length  0:00:01.80
     Peak level 88.1 %
     Track quality 100.0 %
     Test CRC 034C3E09
     Copy CRC 034C3E09
     Accurately ripped (confidence 2)  [3186226B]
     Copy OK
Track  4
     Filename D:\CD-Rips\Cats - 2010 - Alle 40 Goed CD1\04 - Cats - Marian [1969].flac
     Pre-gap length  0:00:01.80
     Peak level 100.0 %
     Track quality 100.0 %
     Test CRC 4AD920E2
     Copy CRC 4AD920E2
     Accurately ripped (confidence 2)  [666C4DBD]
     Copy OK
Track  5
     Filename D:\CD-Rips\Cats - 2010 - Alle 40 Goed CD1\05 - Cats - Be My Day [1974].flac
     Pre-gap length  0:00:01.80
     Peak level 99.9 %
     Track quality 99.9 %
     Test CRC 783ED28F
     Copy CRC 783ED28F
     Accurately ripped (confidence 2)  [D099BDEC]
     Copy OK
Track  6
     Filename D:\CD-Rips\Cats - 2010 - Alle 40 Goed CD1\06 - Cats - Without Your Love [1967].flac
     Pre-gap length  0:00:01.80
     Peak level 87.7 %
     Track quality 100.0 %
     Test CRC 9F0CD27D
     Copy CRC 9F0CD27D
     Accurately ripped (confidence 2)  [5767849C]
     Copy OK
Track  7
     Filename D:\CD-Rips\Cats - 2010 - Alle 40 Goed CD1\07 - Cats - Where Have I Been Wrong [1970].flac
     Pre-gap length  0:00:01.80
     Peak level 90.3 %
     Track quality 100.0 %
     Test CRC DB86AAF9
     Copy CRC DB86AAF9
     Accurately ripped (confidence 2)  [E6C42BAD]
     Copy OK
Track  8
     Filename D:\CD-Rips\Cats - 2010 - Alle 40 Goed CD1\08 - Cats - Why [1969].flac
     Pre-gap length  0:00:01.80
     Peak level 97.9 %
     Track quality 99.9 %
     Test CRC 60A9BBBE
     Copy CRC 60A9BBBE
     Accurately ripped (confidence 2)  [2A4011F4]
     Copy OK
Track  9
     Filename D:\CD-Rips\Cats - 2010 - Alle 40 Goed CD1\09 - Cats - Times Were When [1968].flac
     Pre-gap length  0:00:01.80
     Peak level 90.8 %
     Track quality 100.0 %
     Test CRC B34BBFDF
     Copy CRC B34BBFDF
     Accurately ripped (confidence 2)  [60162B3C]
     Copy OK
Track 10
     Filename D:\CD-Rips\Cats - 2010 - Alle 40 Goed CD1\10 - Cats - Let's Dance [1972].flac
     Pre-gap length  0:00:01.80
     Peak level 99.9 %
     Track quality 100.0 %
     Test CRC 7E2F4FA6
     Copy CRC 7E2F4FA6
     Accurately ripped (confidence 2)  [5983C61D]
     Copy OK
Track 11
     Filename D:\CD-Rips\Cats - 2010 - Alle 40 Goed CD1\11 - Cats - There Has Been A Time [1972].flac
     Pre-gap length  0:00:01.80
     Peak level 100.0 %
     Track quality 100.0 %
     Test CRC 93E6EF56
     Copy CRC 93E6EF56
     Accurately ripped (confidence 2)  [30D81B2C]
     Copy OK
Track 12
     Filename D:\CD-Rips\Cats - 2010 - Alle 40 Goed CD1\12 - Cats - Magical Mystery Morning [1970].flac
     Pre-gap length  0:00:01.80
     Peak level 84.8 %
     Track quality 100.0 %
     Test CRC C83ABC4B
     Copy CRC C83ABC4B
     Accurately ripped (confidence 2)  [7289918B]
     Copy OK
Track 13
     Filename D:\CD-Rips\Cats - 2010 - Alle 40 Goed CD1\13 - Cats - The End Of The Show [1972].flac
     Pre-gap length  0:00:01.80
     Peak level 99.9 %
     Track quality 100.0 %
     Test CRC 5311DFC6
     Copy CRC 5311DFC6
     Accurately ripped (confidence 2)  [14F3C0C5]
     Copy OK
Track 14
     Filename D:\CD-Rips\Cats - 2010 - Alle 40 Goed CD1\14 - Cats - Scarlet Ribbons [1969].flac
     Pre-gap length  0:00:01.80
     Peak level 100.0 %
     Track quality 100.0 %
     Test CRC 2E07CC00
     Copy CRC 2E07CC00
     Accurately ripped (confidence 2)  [CDA56DEA]
     Copy OK
Track 15
     Filename D:\CD-Rips\Cats - 2010 - Alle 40 Goed CD1\15 - Cats - Save The Last Dance For Me [1976].flac
     Pre-gap length  0:00:01.80
     Peak level 100.0 %
     Track quality 100.0 %
     Test CRC 7A3AC5EC
     Copy CRC 7A3AC5EC
     Accurately ripped (confidence 2)  [08E59FCD]
     Copy OK
Track 16
     Filename D:\CD-Rips\Cats - 2010 - Alle 40 Goed CD1\16 - Cats - What A Crazy Life [1965].flac
     Pre-gap length  0:00:01.80
     Peak level 100.0 %
     Track quality 100.0 %
     Test CRC CBFECB69
     Copy CRC CBFECB69
     Accurately ripped (confidence 2)  [13AA49CD]
     Copy OK
Track 17
     Filename D:\CD-Rips\Cats - 2010 - Alle 40 Goed CD1\17 - Cats - La Diligence [1982].flac
     Pre-gap length  0:00:01.80
     Peak level 99.6 %
     Track quality 99.9 %
     Test CRC 5E5463B0
     Copy CRC 5E5463B0
     Accurately ripped (confidence 2)  [E0B8E1F6]
     Copy OK
Track 18
     Filename D:\CD-Rips\Cats - 2010 - Alle 40 Goed CD1\18 - Cats - Maribaja [1973].flac
     Pre-gap length  0:00:01.80
     Peak level 84.6 %
     Track quality 100.0 %
     Test CRC D6E7AC52
     Copy CRC D6E7AC52
     Accurately ripped (confidence 2)  [39A7E511]
     Copy OK
Track 19
     Filename D:\CD-Rips\Cats - 2010 - Alle 40 Goed CD1\19 - Cats - Lover's Don't Talk [1983].flac
     Pre-gap length  0:00:01.80
     Peak level 100.0 %
     Track quality 100.0 %
     Test CRC F1CAD328
     Copy CRC F1CAD328
     Accurately ripped (confidence 2)  [F440118D]
     Copy OK
Track 20
     Filename D:\CD-Rips\Cats - 2010 - Alle 40 Goed CD1\20 - Cats - I Walk Through The Fields [1970].flac
     Pre-gap length  0:00:01.80
     Peak level 89.8 %
     Track quality 100.0 %
     Test CRC A158AC74
     Copy CRC A158AC74
     Accurately ripped (confidence 2)  [92DC2BF1]
     Copy OK
All tracks accurately ripped
No errors occurred
End of status report
Код:
REM GENRE Rock
REM DATE 2010
REM DISCID 1010AD14
REM COMMENT "ExactAudioCopy v0.99pb5"
PERFORMER "The Cats"
TITLE "Alle 40 Goed The Cats (disc 1)"
FILE "01. Those Were The Days.flac" WAVE
  TRACK 01 AUDIO
    TITLE "Those Were The Days"
    PERFORMER "The Cats"
    INDEX 01 00:00:00
  TRACK 02 AUDIO
    TITLE "Lea"
    PERFORMER "The Cats"
    INDEX 00 03:52:55
FILE "02. Lea.flac" WAVE
    INDEX 01 00:00:00
  TRACK 03 AUDIO
    TITLE "Sure He's A Cat"
    PERFORMER "The Cats"
    INDEX 00 03:43:15
FILE "03. Sure He's A Cat.flac" WAVE
    INDEX 01 00:00:00
  TRACK 04 AUDIO
    TITLE "Marian"
    PERFORMER "The Cats"
    INDEX 00 02:31:42
FILE "04. Marian.flac" WAVE
    INDEX 01 00:00:00
  TRACK 05 AUDIO
    TITLE "Be My Day"
    PERFORMER "The Cats"
    INDEX 00 04:00:25
FILE "05. Be My Day.flac" WAVE
    INDEX 01 00:00:00
  TRACK 06 AUDIO
    TITLE "Without Your Love"
    PERFORMER "The Cats"
    INDEX 00 02:57:63
FILE "06. Without Your Love.flac" WAVE
    INDEX 01 00:00:00
  TRACK 07 AUDIO
    TITLE "Where Have I Been Wrong"
    PERFORMER "The Cats"
    INDEX 00 02:47:12
FILE "07. Where Have I Been Wrong.flac" WAVE
    INDEX 01 00:00:00
  TRACK 08 AUDIO
    TITLE "Why"
    PERFORMER "The Cats"
    INDEX 00 05:14:09
FILE "08. Why.flac" WAVE
    INDEX 01 00:00:00
  TRACK 09 AUDIO
    TITLE "Times Were When"
    PERFORMER "The Cats"
    INDEX 00 03:59:47
FILE "09. Times Were When.flac" WAVE
    INDEX 01 00:00:00
  TRACK 10 AUDIO
    TITLE "Let's Dance"
    PERFORMER "The Cats"
    INDEX 00 03:11:29
FILE "10. Let's Dance.flac" WAVE
    INDEX 01 00:00:00
  TRACK 11 AUDIO
    TITLE "There Has Been A Time"
    PERFORMER "The Cats"
    INDEX 00 03:26:37
FILE "11. There Has Been A Time.flac" WAVE
    INDEX 01 00:00:00
  TRACK 12 AUDIO
    TITLE "Magical Mystery Morning"
    PERFORMER "The Cats"
    INDEX 00 04:38:01
FILE "12. Magical Mystery Morning.flac" WAVE
    INDEX 01 00:00:00
  TRACK 13 AUDIO
    TITLE "The End Of The Show"
    PERFORMER "The Cats"
    INDEX 00 02:37:01
FILE "13. The End Of The Show.flac" WAVE
    INDEX 01 00:00:00
  TRACK 14 AUDIO
    TITLE "Scarlet Ribbons"
    PERFORMER "The Cats"
    INDEX 00 04:30:16
FILE "14. Scarlet Ribbons.flac" WAVE
    INDEX 01 00:00:00
  TRACK 15 AUDIO
    TITLE "Save The Last Dance For Me"
    PERFORMER "The Cats"
    INDEX 00 03:16:49
FILE "15. Save The Last Dance For Me.flac" WAVE
    INDEX 01 00:00:00
  TRACK 16 AUDIO
    TITLE "What A Crazy Life"
    PERFORMER "The Cats"
    INDEX 00 03:08:06
FILE "16. What A Crazy Life.flac" WAVE
    INDEX 01 00:00:00
  TRACK 17 AUDIO
    TITLE "La Diligence"
    PERFORMER "The Cats"
    INDEX 00 02:34:53
FILE "17. La Diligence.flac" WAVE
    INDEX 01 00:00:00
  TRACK 18 AUDIO
    TITLE "Maribaja"
    PERFORMER "The Cats"
    INDEX 00 03:28:27
FILE "18. Maribaja.flac" WAVE
    INDEX 01 00:00:00
  TRACK 19 AUDIO
    TITLE "Lover's Don't Talk"
    PERFORMER "The Cats"
    INDEX 00 03:07:56
FILE "19. Lover's Don't Talk.flac" WAVE
    INDEX 01 00:00:00
  TRACK 20 AUDIO
    TITLE "I Walk Through The Fields"
    PERFORMER "The Cats"
    INDEX 00 03:37:31
FILE "20. I Walk Through The Fields.flac" WAVE
    INDEX 01 00:00:00
Код:
Exact Audio Copy V0.99 prebeta 5 from 4. May 2009
EAC extraction logfile from 15. October 2010, 18:21
Cats - 2010 - Alle 40 Goed CD2
Used drive  : HL-DT-STDVDRAM GSA-T40N   Adapter: 0  ID: 0
Read mode               : Secure
Utilize accurate stream : Yes
Defeat audio cache      : Yes
Make use of C2 pointers : No
Read offset correction                      : 667
Overread into Lead-In and Lead-Out          : No
Fill up missing offset samples with silence : Yes
Delete leading and trailing silent blocks   : No
Null samples used in CRC calculations       : Yes
Used interface                              : Native Win32 interface for Win NT & 2000
Gap handling                                : Appended to previous track
Used output format : Internal WAV Routines
Sample format      : 44.100 Hz; 16 Bit; Stereo
TOC of the extracted CD
     Track |   Start  |  Length  | Start sector | End sector
    ---------------------------------------------------------
        1  |  0:00.00 |  4:58.15 |         0    |    22364
        2  |  4:58.15 |  3:01.50 |     22365    |    35989
        3  |  7:59.65 |  3:29.12 |     35990    |    51676
        4  | 11:29.02 |  3:42.00 |     51677    |    68326
        5  | 15:11.02 |  3:00.01 |     68327    |    81827
        6  | 18:11.03 |  3:00.37 |     81828    |    95364
        7  | 21:11.40 |  3:45.35 |     95365    |   112274
        8  | 24:57.00 |  2:51.47 |    112275    |   125146
        9  | 27:48.47 |  3:33.56 |    125147    |   141177
       10  | 31:22.28 |  3:10.14 |    141178    |   155441
       11  | 34:32.42 |  2:33.36 |    155442    |   166952
       12  | 37:06.03 |  3:49.31 |    166953    |   184158
       13  | 40:55.34 |  3:08.45 |    184159    |   198303
       14  | 44:04.04 |  3:46.13 |    198304    |   215266
       15  | 47:50.17 |  3:50.39 |    215267    |   232555
       16  | 51:40.56 |  3:58.70 |    232556    |   250475
       17  | 55:39.51 |  6:40.55 |    250476    |   280530
       18  | 62:20.31 |  2:34.46 |    280531    |   292126
       19  | 64:55.02 |  4:22.13 |    292127    |   311789
       20  | 69:17.15 |  3:19.70 |    311790    |   326784
Track  1
     Filename D:\CD-Rips\Cats - 2010 - Alle 40 Goed CD2\01 - Cats - Rock & Roll (I Gave You The Best Years Of My Life) [1974].flac
     Pre-gap length  0:00:02.00
     Peak level 100.0 %
     Track quality 99.9 %
     Test CRC 8C7B636A
     Copy CRC 8C7B636A
     Accurately ripped (confidence 2)  [DF75EE4B]
     Copy OK
Track  2
     Filename D:\CD-Rips\Cats - 2010 - Alle 40 Goed CD2\02 - Cats - Turn Around And Start Again [1967].flac
     Pre-gap length  0:00:01.80
     Peak level 100.0 %
     Track quality 99.9 %
     Test CRC DCBAD3F7
     Copy CRC DCBAD3F7
     Accurately ripped (confidence 2)  [358A5B3F]
     Copy OK
Track  3
     Filename D:\CD-Rips\Cats - 2010 - Alle 40 Goed CD2\03 - Cats - Vaya Con Dios [1968].flac
     Pre-gap length  0:00:01.80
     Peak level 89.5 %
     Track quality 100.0 %
     Test CRC 3E6A0A89
     Copy CRC 3E6A0A89
     Accurately ripped (confidence 2)  [ED765A2D]
     Copy OK
Track  4
     Filename D:\CD-Rips\Cats - 2010 - Alle 40 Goed CD2\04 - Cats - One Way Wind [1972].flac
     Pre-gap length  0:00:01.80
     Peak level 90.5 %
     Track quality 100.0 %
     Test CRC EE8FACD9
     Copy CRC EE8FACD9
     Accurately ripped (confidence 2)  [9F00D96C]
     Copy OK
Track  5
     Filename D:\CD-Rips\Cats - 2010 - Alle 40 Goed CD2\05 - Cats - Take Me With You [1970].flac
     Pre-gap length  0:00:01.80
     Peak level 100.0 %
     Track quality 100.0 %
     Test CRC C28B3408
     Copy CRC C28B3408
     Accurately ripped (confidence 2)  [1075C22F]
     Copy OK
Track  6
     Filename D:\CD-Rips\Cats - 2010 - Alle 40 Goed CD2\06 - Cats - My Friend Joe [1971].flac
     Pre-gap length  0:00:01.80
     Peak level 85.2 %
     Track quality 100.0 %
     Test CRC F277BE63
     Copy CRC F277BE63
     Accurately ripped (confidence 2)  [C2EA41BF]
     Copy OK
Track  7
     Filename D:\CD-Rips\Cats - 2010 - Alle 40 Goed CD2\07 - Cats - Let's Go Together [1973].flac
     Pre-gap length  0:00:01.80
     Peak level 90.1 %
     Track quality 99.9 %
     Test CRC 1B4BE8DA
     Copy CRC 1B4BE8DA
     Accurately ripped (confidence 2)  [2B04A197]
     Copy OK
Track  8
     Filename D:\CD-Rips\Cats - 2010 - Alle 40 Goed CD2\08 - Cats - Jukebox [1965].flac
     Pre-gap length  0:00:01.80
     Peak level 100.0 %
     Track quality 100.0 %
     Test CRC 2D095DCA
     Copy CRC 2D095DCA
     Accurately ripped (confidence 2)  [09FDCE62]
     Copy OK
Track  9
     Filename D:\CD-Rips\Cats - 2010 - Alle 40 Goed CD2\09 - Cats - A Letter [1974].flac
     Pre-gap length  0:00:01.80
     Peak level 89.8 %
     Track quality 100.0 %
     Test CRC FAC5E817
     Copy CRC FAC5E817
     Accurately ripped (confidence 2)  [F9F3D77F]
     Copy OK
Track 10
     Filename D:\CD-Rips\Cats - 2010 - Alle 40 Goed CD2\10 - Cats - Country Woman [1971].flac
     Pre-gap length  0:00:01.80
     Peak level 90.1 %
     Track quality 100.0 %
     Test CRC 93EAF09D
     Copy CRC 93EAF09D
     Accurately ripped (confidence 2)  [C08C5CD8]
     Copy OK
Track 11
     Filename D:\CD-Rips\Cats - 2010 - Alle 40 Goed CD2\11 - Cats - Come Sunday [1975].flac
     Pre-gap length  0:00:01.80
     Peak level 85.7 %
     Track quality 100.0 %
     Test CRC 788BC4CE
     Copy CRC 788BC4CE
     Accurately ripped (confidence 2)  [ACD6379E]
     Copy OK
Track 12
     Filename D:\CD-Rips\Cats - 2010 - Alle 40 Goed CD2\12 - Cats - Cindy [1979].flac
     Pre-gap length  0:00:01.80
     Peak level 100.0 %
     Track quality 100.0 %
     Test CRC B6747B81
     Copy CRC B6747B81
     Accurately ripped (confidence 2)  [DD0D8B14]
     Copy OK
Track 13
     Filename D:\CD-Rips\Cats - 2010 - Alle 40 Goed CD2\13 - Cats - Let's Follow The Sun [1972].flac
     Pre-gap length  0:00:01.80
     Peak level 99.9 %
     Track quality 99.9 %
     Test CRC 080F6AD2
     Copy CRC 080F6AD2
     Accurately ripped (confidence 2)  [5C33AC44]
     Copy OK
Track 14
     Filename D:\CD-Rips\Cats - 2010 - Alle 40 Goed CD2\14 - Cats - The Best Years Of My Life [2006].flac
     Pre-gap length  0:00:01.80
     Peak level 87.0 %
     Track quality 100.0 %
     Test CRC 72ABD787
     Copy CRC 72ABD787
     Accurately ripped (confidence 2)  [6BF08D4A]
     Copy OK
Track 15
     Filename D:\CD-Rips\Cats - 2010 - Alle 40 Goed CD2\15 - Cats - If You'll Be My Woman [1974].flac
     Pre-gap length  0:00:01.80
     Peak level 93.8 %
     Track quality 100.0 %
     Test CRC F87F8A70
     Copy CRC F87F8A70
     Accurately ripped (confidence 2)  [3A4BE768]
     Copy OK
Track 16
     Filename D:\CD-Rips\Cats - 2010 - Alle 40 Goed CD2\16 - Cats - Love Like Yours [1984].flac
     Pre-gap length  0:00:01.80
     Peak level 99.6 %
     Track quality 100.0 %
     Test CRC 4D92D20A
     Copy CRC 4D92D20A
     Accurately ripped (confidence 2)  [7CB4D1ED]
     Copy OK
Track 17
     Filename D:\CD-Rips\Cats - 2010 - Alle 40 Goed CD2\17 - Cats - Dreams [1972].flac
     Pre-gap length  0:00:01.80
     Peak level 94.8 %
     Track quality 100.0 %
     Test CRC DAE21F4E
     Copy CRC DAE21F4E
     Accurately ripped (confidence 2)  [F4B94920]
     Copy OK
Track 18
     Filename D:\CD-Rips\Cats - 2010 - Alle 40 Goed CD2\18 - Cats - I Gotta Know What's Going On [1968].flac
     Pre-gap length  0:00:01.80
     Peak level 95.2 %
     Track quality 100.0 %
     Test CRC AAE64200
     Copy CRC AAE64200
     Accurately ripped (confidence 2)  [AEC37042]
     Copy OK
Track 19
     Filename D:\CD-Rips\Cats - 2010 - Alle 40 Goed CD2\19 - Cats - Trying To Explain [1972].flac
     Pre-gap length  0:00:01.80
     Peak level 86.0 %
     Track quality 100.0 %
     Test CRC F97C7DE9
     Copy CRC F97C7DE9
     Accurately ripped (confidence 2)  [68C7264A]
     Copy OK
Track 20
     Filename D:\CD-Rips\Cats - 2010 - Alle 40 Goed CD2\20 - Cats - Mandy My Dear [1969].flac
     Pre-gap length  0:00:01.80
     Peak level 97.9 %
     Track quality 99.9 %
     Test CRC 612C4E3B
     Copy CRC 612C4E3B
     Accurately ripped (confidence 2)  [36AAEF30]
     Copy OK
All tracks accurately ripped
No errors occurred
End of status report
Код:
REM GENRE Rock
REM DATE 2010
REM DISCID 25110514
REM COMMENT "ExactAudioCopy v0.99pb5"
PERFORMER "The Cats"
TITLE "Alle 40 Goed The Cats (disc 2)"
FILE "01. Rock & Roll (I Gave You The Best Years Of My Life).flac" WAVE
  TRACK 01 AUDIO
    TITLE "Rock & Roll (I Gave You The Best Years Of My Life)"
    PERFORMER "The Cats"
    INDEX 01 00:00:00
  TRACK 02 AUDIO
    TITLE "Turn Around And Start Again"
    PERFORMER "The Cats"
    INDEX 00 04:56:30
FILE "02. Turn Around And Start Again.flac" WAVE
    INDEX 01 00:00:00
  TRACK 03 AUDIO
    TITLE "Vaya Con Dios"
    PERFORMER "The Cats"
    INDEX 00 02:59:65
FILE "03. Vaya Con Dios.flac" WAVE
    INDEX 01 00:00:00
  TRACK 04 AUDIO
    TITLE "One Way Wind"
    PERFORMER "The Cats"
    INDEX 00 03:27:27
FILE "04. One Way Wind.flac" WAVE
    INDEX 01 00:00:00
  TRACK 05 AUDIO
    TITLE "Take Me With You"
    PERFORMER "The Cats"
    INDEX 00 03:40:15
FILE "05. Take Me With You.flac" WAVE
    INDEX 01 00:00:00
  TRACK 06 AUDIO
    TITLE "My Friend Joe"
    PERFORMER "The Cats"
    INDEX 00 02:58:16
FILE "06. My Friend Joe.flac" WAVE
    INDEX 01 00:00:00
  TRACK 07 AUDIO
    TITLE "Let's Go Together"
    PERFORMER "The Cats"
    INDEX 00 02:58:52
FILE "07. Let's Go Together.flac" WAVE
    INDEX 01 00:00:00
  TRACK 08 AUDIO
    TITLE "Jukebox"
    PERFORMER "The Cats"
    INDEX 00 03:43:50
FILE "08. Jukebox.flac" WAVE
    INDEX 01 00:00:00
  TRACK 09 AUDIO
    TITLE "A Letter"
    PERFORMER "The Cats"
    INDEX 00 02:49:62
FILE "09. A Letter.flac" WAVE
    INDEX 01 00:00:00
  TRACK 10 AUDIO
    TITLE "Country Woman"
    PERFORMER "The Cats"
    INDEX 00 03:31:71
FILE "10. Country Woman.flac" WAVE
    INDEX 01 00:00:00
  TRACK 11 AUDIO
    TITLE "Come Sunday"
    PERFORMER "The Cats"
    INDEX 00 03:08:29
FILE "11. Come Sunday.flac" WAVE
    INDEX 01 00:00:00
  TRACK 12 AUDIO
    TITLE "Cindy"
    PERFORMER "The Cats"
    INDEX 00 02:31:51
FILE "12. Cindy.flac" WAVE
    INDEX 01 00:00:00
  TRACK 13 AUDIO
    TITLE "Let's Follow The Sun"
    PERFORMER "The Cats"
    INDEX 00 03:47:46
FILE "13. Let's Follow The Sun.flac" WAVE
    INDEX 01 00:00:00
  TRACK 14 AUDIO
    TITLE "The Best Years Of My Life"
    PERFORMER "The Cats"
    INDEX 00 03:06:60
FILE "14. The Best Years Of My Life.flac" WAVE
    INDEX 01 00:00:00
  TRACK 15 AUDIO
    TITLE "If You'll Be My Woman"
    PERFORMER "The Cats"
    INDEX 00 03:44:28
FILE "15. If You'll Be My Woman.flac" WAVE
    INDEX 01 00:00:00
  TRACK 16 AUDIO
    TITLE "Love Like Yours"
    PERFORMER "The Cats"
    INDEX 00 03:48:54
FILE "16. Love Like Yours.flac" WAVE
    INDEX 01 00:00:00
  TRACK 17 AUDIO
    TITLE "Dreams"
    PERFORMER "The Cats"
    INDEX 00 03:57:10
FILE "17. Dreams.flac" WAVE
    INDEX 01 00:00:00
  TRACK 18 AUDIO
    TITLE "I Gotta Know What's Going On"
    PERFORMER "The Cats"
    INDEX 00 06:38:70
FILE "18. I Gotta Know What's Going On.flac" WAVE
    INDEX 01 00:00:00
  TRACK 19 AUDIO
    TITLE "Trying To Explain"
    PERFORMER "The Cats"
    INDEX 00 02:32:61
FILE "19. Trying To Explain.flac" WAVE
    INDEX 01 00:00:00
  TRACK 20 AUDIO
    TITLE "Mandy My Dear"
    PERFORMER "The Cats"
    INDEX 00 04:20:28
FILE "20. Mandy My Dear.flac" WAVE
    INDEX 01 00:00:00
Правила, инструкции, FAQ!!!
Торрент  Добавлен [26 мар 2019, 20:45] Скачать торрент Магнет ссылка
Скачать торрент
[ Размер 12.11 КБ / Просмотров 3 ]

Статус
Проверен 
 
Размер  868.34 МБ
Приватный: Нет (DHT включён)
.torrent скачан  0
 


     Отправить личное сообщение
   
Страница 1 из 1
Показать сообщения за:  Поле сортировки  
Начать новую тему Ответить на тему


Сейчас этот форум просматривают: нет зарегистрированных пользователей и гости: 0


Вы не можете начинать темы
Вы не можете отвечать на сообщения
Вы не можете редактировать свои сообщения
Вы не можете удалять свои сообщения
Вы не можете добавлять вложения

Перейти:  
cron