Начать новую тему Ответить на тему
Статистика раздачи
Размер: 116.8 МБ | Добавлен: 26 мар 2019, 20:27 | Скачали: 0
Сидеров: 0  [0 байт/сек]    Личеров: 0  [0 байт/сек]
Пред. тема | След. тема 

Автор
Сообщение

СообщениеДобавлено: 26 мар 2019, 20:27 

Ответить с цитатой 

The Cardigans - You're the Storm (Single)
Жанр: Pop-Rock/Soft Rock
Год выпуска диска: 2003
Производитель диска: EU
Аудио кодек: FLAC
Тип рипа: image+.cue
Битрейт аудио: lossless
Продолжительность: 15:41
Трэклист:
1. You're The Storm
2. Hold Me
3. You're The Storm (Sandkvie session)
4. You're The Storm (First Demo)
Доп. информация:
Сингл с альбома Long Gone Before Daylight. Внутри скан развернутой обложки и самого CD.
Ripped by me -)
Код:
Exact Audio Copy V0.99 prebeta 3 from 28. July 2007
EAC extraction logfile from 9. February 2009, 22:51
The Cardigans / You're the Storm (Single)
Used drive  : SlimtypeDVDRW SSM-8515S   Adapter: 0  ID: 1
Read mode               : Secure
Utilize accurate stream : Yes
Defeat audio cache      : Yes
Make use of C2 pointers : No
Read offset correction                      : 594
Overread into Lead-In and Lead-Out          : No
Fill up missing offset samples with silence : Yes
Delete leading and trailing silent blocks   : No
Null samples used in CRC calculations       : Yes
Used interface                              : Native Win32 interface for Win NT & 2000
Used output format : Internal WAV Routines
Sample format      : 44.100 Hz; 16 Bit; Stereo
TOC of the extracted CD
     Track |   Start  |  Length  | Start sector | End sector
    ---------------------------------------------------------
        1  |  0:00.00 |  3:55.08 |         0    |    17632
        2  |  3:55.08 |  3:40.49 |     17633    |    34181
        3  |  7:35.57 |  4:35.27 |     34182    |    54833
        4  | 12:11.09 |  3:29.68 |     54834    |    70576
Range status and errors
Selected range
     Filename C:\The Cardigans - You're the Storm (Single).wav
     Peak level 98.8 %
     Range quality 100.0 %
     Copy CRC 7F82B76D
     Copy OK
No errors occurred
End of status report
Правила, инструкции, FAQ!!!
Торрент  Добавлен [26 мар 2019, 20:27] Скачать торрент Магнет ссылка
Скачать торрент
[ Размер 19.05 КБ / Просмотров 6 ]

Статус
Проверен 
 
Размер  116.8 МБ
Приватный: Нет (DHT включён)
.torrent скачан  0
 


     Отправить личное сообщение
   
Страница 1 из 1
Показать сообщения за:  Поле сортировки  
Начать новую тему Ответить на тему


Сейчас этот форум просматривают: нет зарегистрированных пользователей и гости: 0


Вы не можете начинать темы
Вы не можете отвечать на сообщения
Вы не можете редактировать свои сообщения
Вы не можете удалять свои сообщения
Вы не можете добавлять вложения

Перейти:  
cron