Начать новую тему Ответить на тему
Статистика раздачи
Размер: 337.35 МБ | Добавлен: 26 мар 2019, 20:05 | Скачали: 0
Сидеров: 0  [0 байт/сек]    Личеров: 0  [0 байт/сек]
Пред. тема | След. тема 

Автор
Сообщение

СообщениеДобавлено: 26 мар 2019, 20:05 

Ответить с цитатой 

U2 - Studio Sessions '91
Жанр: Pop-Rock & Soft Rock
Год выпуска диска: 1991
Производитель диска: UK
Аудио кодек: FLAC
Тип рипа: tracks+.cue
Битрейт аудио: lossless
Продолжительность: 00:59:12
Треклист:
1. Heaven and Hell (6:45)
2. Fragments of the 'Real Thing' (5:48)
3. Got to Get Together (9:13)
4. Untitled Session (8:51)
5. The Darkest Night (4:30)
6. Fragments of 'Wild Horses' (4:18)
7. How Do You Feel? (7:44)
8. Blow Your House Down (7:39)
9. Walk On By (4:24)
Сканы в комплекте
EAC extraction logfile from 8. August 2010, 11:25
U2 / Studio Sessions '91
Used drive : PIONEER DVD-RW DVR-110D Adapter: 0 ID: 0
Read mode : Secure
Utilize accurate stream : Yes
Defeat audio cache : Yes
Make use of C2 pointers : No
Read offset correction : 48
Overread into Lead-In and Lead-Out : No
Fill up missing offset samples with silence : Yes
Delete leading and trailing silent blocks : No
Null samples used in CRC calculations : Yes
Used interface : Native Win32 interface for Win NT & 2000
Gap handling : Appended to previous track
Used output format : User Defined Encoder
Selected bitrate : 192 kBit/s
Quality : High
Add ID3 tag : No
Command line compressor : D:\Distrib\Мультимедиа\Кодеки\Flac\flac.exe
Additional command line options : -8 -V -T "ARTIST=%a" -T "TITLE=%t" -T "ALBUM=%g" -T "DATE=%y" -T "TRACKNUMBER=%n" -T "GENRE=%m" -T "COMMENT=EAC FLAC -8" %s
TOC of the extracted CD
Track | Start | Length | Start sector | End sector
---------------------------------------------------------
1 | 0:00.00 | 6:45.50 | 0 | 30424
2 | 6:45.50 | 5:48.67 | 30425 | 56591
3 | 12:34.42 | 9:13.15 | 56592 | 98081
4 | 21:47.57 | 8:51.05 | 98082 | 137911
5 | 30:38.62 | 4:30.40 | 137912 | 158201
6 | 35:09.27 | 4:18.55 | 158202 | 177606
7 | 39:28.07 | 7:44.68 | 177607 | 212474
8 | 47:13.00 | 7:39.05 | 212475 | 246904
9 | 54:52.05 | 4:24.40 | 246905 | 266744
Track 1
Filename D:\u2-91\01. U2 – Heaven and Hell.wav
Pre-gap length 0:00:02.00
Peak level 86.7 %
Track quality 100.0 %
Test CRC 829BD6D8
Copy CRC 829BD6D8
Track not present in AccurateRip database
Copy OK
Track 2
Filename D:\u2-91\02. U2 – Fragments of the 'Real Thing'.wav
Peak level 84.1 %
Track quality 100.0 %
Test CRC E6E2D920
Copy CRC E6E2D920
Track not present in AccurateRip database
Copy OK
Track 3
Filename D:\u2-91\03. U2 – Got to Get Together.wav
Peak level 98.1 %
Track quality 99.9 %
Test CRC 1B17597E
Copy CRC 1B17597E
Track not present in AccurateRip database
Copy OK
Track 4
Filename D:\u2-91\04. U2 – Untitled Session.wav
Peak level 70.4 %
Track quality 100.0 %
Test CRC 6A9604FF
Copy CRC 6A9604FF
Track not present in AccurateRip database
Copy OK
Track 5
Filename D:\u2-91\05. U2 – The Darkest Night.wav
Peak level 74.2 %
Track quality 100.0 %
Test CRC 25BF1C29
Copy CRC 25BF1C29
Track not present in AccurateRip database
Copy OK
Track 6
Filename D:\u2-91\06. U2 – Fragments of 'Wild Horses'.wav
Peak level 73.6 %
Track quality 100.0 %
Test CRC 3E31BEFA
Copy CRC 3E31BEFA
Track not present in AccurateRip database
Copy OK
Track 7
Filename D:\u2-91\07. U2 – How Do You Feel .wav
Peak level 100.0 %
Track quality 99.9 %
Test CRC 01EAE651
Copy CRC 01EAE651
Track not present in AccurateRip database
Copy OK
Track 8
Filename D:\u2-91\08. U2 – Blow Your House Down.wav
Peak level 94.6 %
Track quality 100.0 %
Test CRC 9643DF78
Copy CRC 9643DF78
Track not present in AccurateRip database
Copy OK
Track 9
Filename D:\u2-91\09. U2 – Walk On By.wav
Peak level 96.4 %
Track quality 100.0 %
Test CRC 901AC635
Copy CRC 901AC635
Track not present in AccurateRip database
Copy OK
None of the tracks are present in the AccurateRip database
No errors occurred
End of status report
REM GENRE Rock
REM DATE 1992
REM DISCID 6E0DE409
REM COMMENT "ExactAudioCopy v0.99pb4"
PERFORMER "U2"
TITLE "Studio Sessions '91"
FILE "01. U2 – Heaven and Hell.wav" WAVE
TRACK 01 AUDIO
TITLE "Heaven and Hell"
PERFORMER "U2"
INDEX 01 00:00:00
FILE "02. U2 – Fragments of the 'Real Thing'.wav" WAVE
TRACK 02 AUDIO
TITLE "Fragments of the 'Real Thing'"
PERFORMER "U2"
INDEX 01 00:00:00
FILE "03. U2 – Got to Get Together.wav" WAVE
TRACK 03 AUDIO
TITLE "Got to Get Together"
PERFORMER "U2"
INDEX 01 00:00:00
FILE "04. U2 – Untitled Session.wav" WAVE
TRACK 04 AUDIO
TITLE "Untitled Session"
PERFORMER "U2"
INDEX 01 00:00:00
FILE "05. U2 – The Darkest Night.wav" WAVE
TRACK 05 AUDIO
TITLE "The Darkest Night"
PERFORMER "U2"
INDEX 01 00:00:00
FILE "06. U2 – Fragments of 'Wild Horses'.wav" WAVE
TRACK 06 AUDIO
TITLE "Fragments of 'Wild Horses'"
PERFORMER "U2"
INDEX 01 00:00:00
FILE "07. U2 – How Do You Feel .wav" WAVE
TRACK 07 AUDIO
TITLE "How Do You Feel?"
PERFORMER "U2"
INDEX 01 00:00:00
FILE "08. U2 – Blow Your House Down.wav" WAVE
TRACK 08 AUDIO
TITLE "Blow Your House Down"
PERFORMER "U2"
INDEX 01 00:00:00
FILE "09. U2 – Walk On By.wav" WAVE
TRACK 09 AUDIO
TITLE "Walk On By"
PERFORMER "U2"
INDEX 01 00:00:00
Правила, инструкции, FAQ!!!
Торрент  Добавлен [26 мар 2019, 20:05] Скачать торрент Магнет ссылка
Скачать торрент
[ Размер 14.43 КБ / Просмотров 6 ]

Статус
Проверен 
 
Размер  337.35 МБ
Приватный: Нет (DHT включён)
.torrent скачан  0
 


     Отправить личное сообщение
   
Страница 1 из 1
Показать сообщения за:  Поле сортировки  
Начать новую тему Ответить на тему


Сейчас этот форум просматривают: нет зарегистрированных пользователей и гости: 0


Вы не можете начинать темы
Вы не можете отвечать на сообщения
Вы не можете редактировать свои сообщения
Вы не можете удалять свои сообщения
Вы не можете добавлять вложения

Перейти:  
cron