Начать новую тему Ответить на тему
Статистика раздачи
Размер: 800.14 МБ | Добавлен: 26 мар 2019, 19:34 | Скачали: 0
Сидеров: 0  [0 байт/сек]    Личеров: 5  [0 байт/сек]
Пред. тема | След. тема 

Автор
Сообщение

СообщениеДобавлено: 26 мар 2019, 19:34 

Ответить с цитатой 

Steve & Stevie / Tin Tin / The Legend Of Steve Kipner And Steve Groves 1968-1973
Жанр: Pop Rock, Soft Rock
Носитель: 2CD
Страна-производитель диска (релиза): France
Год издания: 1968-1973 (2013)
Издатель (лейбл): Magic Records
Номер по каталогу: 3930975
Страна исполнителя (группы): Australia
Аудиокодек: FLAC (*.flac)
Тип рипа: image+.cue
Битрейт аудио: lossless
Продолжительность: 00:50:36 + 01:08:26
Источник (релизер): собственный рип
Наличие сканов в содержимом раздачи: да
Steve & Stevie
1. Merry Go Round
2. Remains To Be Seen
3. Sunshine On Snow
4. Liza
5. As I See My Life
6. Shine
7. To Whom It May Concern
8. Melissa Green
9. She's Getting Married
10. The Birds
11. Fairy Tale Princess
12. I Can See It In The Moon
Tin Tin
13. She Said Ride
14. Swans On The Canal
15. Flag
16. Put Your Money On My Dog
17. Nobody Moves Me Like You
18. Tuesday's Dreamer
19. Only Ladies Play Croquet
20. Family Tree
21. Spanish Shepherd
22. He Wants To Be A Star
Код:
Exact Audio Copy V1.1 from 23. June 2015
Отчёт EAC об извлечении, выполненном 25. июля 2016, 18:02
Steve & Stevie / Tin Tin / Steve Kipner & Steve Groves 1968-1973 (CD1)
Дисковод: ASUS    DRW-24B3ST   Adapter: 0  ID: 0
Режим чтения                 : Достоверность
Использование точного потока : Да
Отключение кэша аудио        : Да
Использование указателей C2  : Нет
Коррекция смещения при чтении                     : 6
Способность читать области Lead-in и Lead-out     : Нет
Заполнение пропущенных сэмплов тишиной            : Да
Удаление блоков с тишиной в начале и конце        : Нет
При вычислениях CRC использовались нулевые сэмплы : Да
Интерфейс                                         : Установленный внешний ASPI-интерфейс
Выходной формат          : Пользовательский кодировщик
Выбранный битрейт        : 1024 kBit/s
Качество                 : Высокий
Добавление ID3-тега      : Нет
Утилита сжатия           : C:\Program Files (x86)\Exact Audio Copy\FLAC\FLAC.EXE
Дополнительные параметры : -6 -V -T "ARTIST=%artist%" -T "TITLE=%title%" -T "ALBUM=%albumtitle%" -T "DATE=%year%" -T "TRACKNUMBER=%tracknr%" -T "GENRE=%genre%" -T "COMMENT=%comment%" -T "BAND=%albuminterpret%" -T "ALBUMARTIST=%albuminterpret%" -T "COMPOSER=%composer%" %haslyrics%--tag-from-file=LYRICS="%lyricsfile%"%haslyrics% -T "DISCNUMBER=%cdnumber%" -T "TOTALDISCS=%totalcds%" -T "TOTALTRACKS=%numtracks%" %hascover%--picture="%coverfile%"%hascover% %source% -o %dest%
TOC извлечённого CD
     Трек |   Старт  | Длительность | Начальный сектор | Конечный сектор
    ---------------------------------------------------------------------
       1  |  0:00.00 |    2:27.09   |           0      |      11033
       2  |  2:27.09 |    3:05.22   |       11034      |      24930
       3  |  5:32.31 |    2:26.48   |       24931      |      35928
       4  |  7:59.04 |    2:20.27   |       35929      |      46455
       5  | 10:19.31 |    2:46.50   |       46456      |      58955
       6  | 13:06.06 |    2:04.52   |       58956      |      68307
       7  | 15:10.58 |    2:03.35   |       68308      |      77567
       8  | 17:14.18 |    2:02.32   |       77568      |      86749
       9  | 19:16.50 |    2:35.00   |       86750      |      98374
      10  | 21:51.50 |    2:01.28   |       98375      |     107477
      11  | 23:53.03 |    2:30.74   |      107478      |     118801
      12  | 26:24.02 |    2:16.54   |      118802      |     129055
      13  | 28:40.56 |    2:34.09   |      129056      |     140614
      14  | 31:14.65 |    2:10.72   |      140615      |     150436
      15  | 33:25.62 |    1:24.69   |      150437      |     156805
      16  | 34:50.56 |    2:58.69   |      156806      |     170224
      17  | 37:49.50 |    1:52.50   |      170225      |     178674
      18  | 39:42.25 |    1:20.34   |      178675      |     184708
      19  | 41:02.59 |    2:18.60   |      184709      |     195118
      20  | 43:21.44 |    2:29.32   |      195119      |     206325
      21  | 45:51.01 |    2:35.38   |      206326      |     217988
      22  | 48:26.39 |    2:09.07   |      217989      |     227670
Характеристики диапазона извлечения и сообщения об ошибках
Выбранный диапазон
     Имя файла C:\Torrents - my\Steve & Stevie  Tin Tin - 2013 - The Legend Of Steve Kipner And Steve Groves 1968-1973\CD1\Steve & Stevie , Tin Tin - Steve Kipner & Steve Groves 1968-1973 (CD1).wav
     Пиковый уровень 99.4 %
     Скорость извлечения 8.2 X
     Качество диапазона 100.0 %
     CRC теста 6A83BF2B
     CRC копии 6A83BF2B
     Копирование... OK
Ошибок не произошло
Конец отчёта
==== Контрольная сумма отчёта E2FD32E1737D4A04FE833932BD6C3D8E8C69C5B2B70A055A1682BF0529C29F94 ====
Tin Tin
1. Toast And Marmelade For Tea
2. Come On Over Again
3. Manhattan Woman
4. Lady In Blue
5. Love Her That Way (Bonus)
6. Back To Winona (Bonus)
The Fut
7. Have You Heard The Word? (Bonus)
Tin Tin Astral Taxi
8. Astral Taxi
9. Ships On The Starboard
10. Our Destiny
11. Tomorrw Today
12. Jenny B.
13. I Took A Holiday
14. Tag Around
15. Set Sail To England
16. The Cavalry's Comimg
17. Benny And The Wonder Dog
18. Is That The Way
19. Talking Turkey (Bonus)
20. Strange One (Bonus)
21. I'm Afraid (Bonus)
Код:
Exact Audio Copy V1.1 from 23. June 2015
Отчёт EAC об извлечении, выполненном 25. июля 2016, 18:21
Steve & Stevie / Tin Tin / Steve Kipner & Steve Groves 1968-1973 (CD2)
Дисковод: ASUS    DRW-24B3ST   Adapter: 0  ID: 0
Режим чтения                 : Достоверность
Использование точного потока : Да
Отключение кэша аудио        : Да
Использование указателей C2  : Нет
Коррекция смещения при чтении                     : 6
Способность читать области Lead-in и Lead-out     : Нет
Заполнение пропущенных сэмплов тишиной            : Да
Удаление блоков с тишиной в начале и конце        : Нет
При вычислениях CRC использовались нулевые сэмплы : Да
Интерфейс                                         : Установленный внешний ASPI-интерфейс
Выходной формат          : Пользовательский кодировщик
Выбранный битрейт        : 1024 kBit/s
Качество                 : Высокий
Добавление ID3-тега      : Нет
Утилита сжатия           : C:\Program Files (x86)\Exact Audio Copy\FLAC\FLAC.EXE
Дополнительные параметры : -6 -V -T "ARTIST=%artist%" -T "TITLE=%title%" -T "ALBUM=%albumtitle%" -T "DATE=%year%" -T "TRACKNUMBER=%tracknr%" -T "GENRE=%genre%" -T "COMMENT=%comment%" -T "BAND=%albuminterpret%" -T "ALBUMARTIST=%albuminterpret%" -T "COMPOSER=%composer%" %haslyrics%--tag-from-file=LYRICS="%lyricsfile%"%haslyrics% -T "DISCNUMBER=%cdnumber%" -T "TOTALDISCS=%totalcds%" -T "TOTALTRACKS=%numtracks%" %hascover%--picture="%coverfile%"%hascover% %source% -o %dest%
TOC извлечённого CD
     Трек |   Старт  | Длительность | Начальный сектор | Конечный сектор
    ---------------------------------------------------------------------
       1  |  0:00.00 |    2:21.15   |           0      |      10589
       2  |  2:21.15 |    3:23.44   |       10590      |      25858
       3  |  5:44.59 |    3:07.03   |       25859      |      39886
       4  |  8:51.62 |    3:28.08   |       39887      |      55494
       5  | 12:19.70 |    2:14.46   |       55495      |      65590
       6  | 14:34.41 |    2:43.40   |       65591      |      77855
       7  | 17:18.06 |    4:30.34   |       77856      |      98139
       8  | 21:48.40 |    3:31.31   |       98140      |     113995
       9  | 25:19.71 |    3:20.46   |      113996      |     129041
      10  | 28:40.42 |    3:15.04   |      129042      |     143670
      11  | 31:55.46 |    3:54.17   |      143671      |     161237
      12  | 35:49.63 |    4:04.51   |      161238      |     179588
      13  | 39:54.39 |    3:21.24   |      179589      |     194687
      14  | 43:15.63 |    2:24.28   |      194688      |     205515
      15  | 45:40.16 |    2:53.73   |      205516      |     218563
      16  | 48:34.14 |    2:43.53   |      218564      |     230841
      17  | 51:17.67 |    3:53.01   |      230842      |     248317
      18  | 55:10.68 |    2:32.54   |      248318      |     259771
      19  | 57:43.47 |    3:27.70   |      259772      |     275366
      20  | 61:11.42 |    3:36.49   |      275367      |     291615
      21  | 64:48.16 |    3:38.18   |      291616      |     307983
Характеристики диапазона извлечения и сообщения об ошибках
Выбранный диапазон
     Имя файла C:\Torrents - my\Steve & Stevie  Tin Tin - 2013 - The Legend Of Steve Kipner And Steve Groves 1968-1973\CD2\Steve & Stevie , Tin Tin - Steve Kipner & Steve Groves 1968-1973 (CD2).wav
     Пиковый уровень 99.4 %
     Скорость извлечения 8.7 X
     Качество диапазона 100.0 %
     CRC теста 1D165466
     CRC копии 1D165466
     Копирование... OK
Ошибок не произошло
Конец отчёта
==== Контрольная сумма отчёта A8F9F7695BB0DBF0B2A6099551C05B3E71E9F5ABE8A8DC484CDDB52B076904BB ====
Правила, инструкции, FAQ!!!
Торрент  Добавлен [26 мар 2019, 19:34] Скачать торрент Магнет ссылка
Скачать торрент
[ Размер 17.13 КБ / Просмотров 9 ]

Статус
Проверен 
 
Размер  800.14 МБ
Приватный: Нет (DHT включён)
.torrent скачан  0
 


     Отправить личное сообщение
   
Страница 1 из 1
Показать сообщения за:  Поле сортировки  
Начать новую тему Ответить на тему


Сейчас этот форум просматривают: нет зарегистрированных пользователей и гости: 0


Вы не можете начинать темы
Вы не можете отвечать на сообщения
Вы не можете редактировать свои сообщения
Вы не можете удалять свои сообщения
Вы не можете добавлять вложения

Перейти:  
cron