Начать новую тему Ответить на тему
Статистика раздачи
Размер: 232.21 МБ | Добавлен: 26 мар 2019, 20:38 | Скачали: 1
Сидеров: 1  [0 байт/сек]    Личеров: 0  [0 байт/сек]
Пред. тема | След. тема 

Автор
Сообщение

СообщениеДобавлено: 26 мар 2019, 20:38 

Ответить с цитатой 

Steve Kipner - Knock the Walls Down
Жанр: Pop Rock, Soft Rock
Носитель: CD
Страна-производитель диска (релиза): Япония
Год издания: 1979 (2014)
Издатель (лейбл): Elektra
Номер по каталогу: WPCR-15651
Аудиокодек: FLAC (*.flac)
Тип рипа: tracks+.cue
Битрейт аудио: lossless
Продолжительность: 35:12
Источник (релизер): What.CD
Наличие сканов в содержимом раздачи: нет
Треклист:
01. The Beginning (2:32)
02. Knock the Walls Down (4:13)
03. Lovemaker (3:15)
04. School of Broken Hearts (4:00)
05. War Games (3:49)
06. I've Got to Stop This Hurting You (3:31)
07. Love Is Its Own Reward (3:28)
08. Cryin' Out for Love (3:33)
09. Guilty (3:28)
10. The Ending (3:23)
Код:
Exact Audio Copy V1.0 beta 6 from 9. April 2015
EAC extraction logfile from 16. December 2015, 17:13
Steve Kipner / Knock the Walls Down
Used drive  : MATSHITADVD+-RW UJ8FB   Adapter: 1  ID: 0
Read mode               : Secure
Utilize accurate stream : Yes
Defeat audio cache      : Yes
Make use of C2 pointers : No
Read offset correction                      : 6
Overread into Lead-In and Lead-Out          : No
Fill up missing offset samples with silence : Yes
Delete leading and trailing silent blocks   : No
Null samples used in CRC calculations       : Yes
Used interface                              : Native Win32 interface for Win NT & 2000
Gap handling                                : Appended to previous track
Used output format              : User Defined Encoder
Selected bitrate                : 1024 kBit/s
Quality                         : High
Add ID3 tag                     : No
Command line compressor         : C:\Program Files\Flac\flac.exe
Additional command line options : -8 -V -T "ARTIST=%artist%" -T "TITLE=%title%" -T "ALBUM=%albumtitle%" -T "DATE=%year%" -T "TRACKNUMBER=%tracknr%" -T "GENRE=%genre%" -T "PERFORMER=%albuminterpret%" -T "COMPOSER=%composer%" %haslyrics%--tag-from-file=LYRICS="%lyricsfile%"%haslyrics% -T "ALBUMARTIST=%albumartist%" -T "DISCNUMBER=%cdnumber%" -T "TOTALDISCS=%totalcds%" -T "TOTALTRACKS=%numtracks%" -T "COMMENT=%comment%" %source% -o %dest%
TOC of the extracted CD
     Track |   Start  |  Length  | Start sector | End sector
    ---------------------------------------------------------
        1  |  0:00.00 |  2:31.50 |         0    |    11374
        2  |  2:31.50 |  4:12.65 |     11375    |    30339
        3  |  6:44.40 |  3:14.39 |     30340    |    44928
        4  |  9:59.04 |  4:00.27 |     44929    |    62955
        5  | 13:59.31 |  3:48.54 |     62956    |    80109
        6  | 17:48.10 |  3:30.70 |     80110    |    95929
        7  | 21:19.05 |  3:27.38 |     95930    |   111492
        8  | 24:46.43 |  3:32.48 |    111493    |   127440
        9  | 28:19.16 |  3:28.36 |    127441    |   143076
       10  | 31:47.52 |  3:23.36 |    143077    |   158337
Track  1
     Filename C:\EAC Rips\Steve Kipner - Knock The Walls Down (1979)\01 - The Beginning.wav
     Pre-gap length  0:00:02.00
     Peak level 100.0 %
     Extraction speed 2.4 X
     Track quality 100.0 %
     Test CRC 8025D2DE
     Copy CRC 8025D2DE
     Accurately ripped (confidence 4)  [AA283006]  (AR v2)
     Copy OK
Track  2
     Filename C:\EAC Rips\Steve Kipner - Knock The Walls Down (1979)\02 - Knock the Walls Down.wav
     Peak level 100.0 %
     Extraction speed 2.8 X
     Track quality 100.0 %
     Test CRC ED10E7E4
     Copy CRC ED10E7E4
     Accurately ripped (confidence 4)  [CCE73B24]  (AR v2)
     Copy OK
Track  3
     Filename C:\EAC Rips\Steve Kipner - Knock The Walls Down (1979)\03 - Lovemaker.wav
     Pre-gap length  0:00:00.89
     Peak level 100.0 %
     Extraction speed 2.4 X
     Track quality 99.9 %
     Test CRC 0FBD105F
     Copy CRC 0FBD105F
     Accurately ripped (confidence 4)  [1D50A287]  (AR v2)
     Copy OK
Track  4
     Filename C:\EAC Rips\Steve Kipner - Knock The Walls Down (1979)\04 - School of Broken Hearts.wav
     Pre-gap length  0:00:01.78
     Peak level 100.0 %
     Extraction speed 2.8 X
     Track quality 99.9 %
     Test CRC 0DCCDBF1
     Copy CRC 0DCCDBF1
     Accurately ripped (confidence 4)  [E1CDA1AD]  (AR v2)
     Copy OK
Track  5
     Filename C:\EAC Rips\Steve Kipner - Knock The Walls Down (1979)\05 - War Games.wav
     Pre-gap length  0:00:01.60
     Peak level 100.0 %
     Extraction speed 2.9 X
     Track quality 99.9 %
     Test CRC 3186F74D
     Copy CRC 3186F74D
     Accurately ripped (confidence 4)  [EB5840E5]  (AR v2)
     Copy OK
Track  6
     Filename C:\EAC Rips\Steve Kipner - Knock The Walls Down (1979)\06 - I've Got to Stop This Hurting You.wav
     Peak level 100.0 %
     Extraction speed 3.7 X
     Track quality 100.0 %
     Test CRC 48A6CBDF
     Copy CRC 48A6CBDF
     Accurately ripped (confidence 4)  [33F23F84]  (AR v2)
     Copy OK
Track  7
     Filename C:\EAC Rips\Steve Kipner - Knock The Walls Down (1979)\07 - Love Is Its Own Reward.wav
     Pre-gap length  0:00:00.68
     Peak level 100.0 %
     Extraction speed 3.1 X
     Track quality 99.9 %
     Test CRC 678566CE
     Copy CRC 678566CE
     Accurately ripped (confidence 4)  [23813CB8]  (AR v2)
     Copy OK
Track  8
     Filename C:\EAC Rips\Steve Kipner - Knock The Walls Down (1979)\08 - Cryin' Out for Love.wav
     Pre-gap length  0:00:00.82
     Peak level 100.0 %
     Extraction speed 4.0 X
     Track quality 100.0 %
     Test CRC EFB2373E
     Copy CRC EFB2373E
     Accurately ripped (confidence 4)  [128C0A4C]  (AR v2)
     Copy OK
Track  9
     Filename C:\EAC Rips\Steve Kipner - Knock The Walls Down (1979)\09 - Guilty.wav
     Peak level 100.0 %
     Extraction speed 3.4 X
     Track quality 99.9 %
     Test CRC 8CEE7F85
     Copy CRC 8CEE7F85
     Accurately ripped (confidence 4)  [80D20381]  (AR v2)
     Copy OK
Track 10
     Filename C:\EAC Rips\Steve Kipner - Knock The Walls Down (1979)\10 - The Ending.wav
     Peak level 100.0 %
     Extraction speed 4.3 X
     Track quality 100.0 %
     Test CRC C1FD32BB
     Copy CRC C1FD32BB
     Accurately ripped (confidence 4)  [D7E745F2]  (AR v2)
     Copy OK
All tracks accurately ripped
No errors occurred
End of status report
---- CUETools DB Plugin V2.1.6
[CTDB TOCID: aQ.7kcRXG6zDImYgLD6mUCyNCU0-] found
Submit result: aQ.7kcRXG6zDImYgLD6mUCyNCU0- has been confirmed
Track | CTDB Status
  1   | (4/4) Accurately ripped
  2   | (4/4) Accurately ripped
  3   | (4/4) Accurately ripped
  4   | (4/4) Accurately ripped
  5   | (4/4) Accurately ripped
  6   | (4/4) Accurately ripped
  7   | (4/4) Accurately ripped
  8   | (4/4) Accurately ripped
  9   | (4/4) Accurately ripped
 10   | (4/4) Accurately ripped
==== Log checksum 945D6BFF6EA9035DE5DB634F890F5E1BED804B23351E12FEB5A41F5611B270D0 ====
Код:
REM GENRE Rock
REM DATE 1979
REM DISCID 6E083F0A
REM COMMENT "ExactAudioCopy v1.0b6"
CATALOG 4943674170043
PERFORMER "Steve Kipner"
TITLE "Knock the Walls Down"
FILE "01 - The Beginning.wav" WAVE
  TRACK 01 AUDIO
    TITLE "The Beginning"
    PERFORMER "Steve Kipner"
    INDEX 01 00:00:00
FILE "02 - Knock the Walls Down.wav" WAVE
  TRACK 02 AUDIO
    TITLE "Knock the Walls Down"
    PERFORMER "Steve Kipner"
    INDEX 01 00:00:00
  TRACK 03 AUDIO
    TITLE "Lovemaker"
    PERFORMER "Steve Kipner"
    INDEX 00 04:11:73
FILE "03 - Lovemaker.wav" WAVE
    INDEX 01 00:00:00
  TRACK 04 AUDIO
    TITLE "School of Broken Hearts"
    PERFORMER "Steve Kipner"
    INDEX 00 03:12:55
FILE "04 - School of Broken Hearts.wav" WAVE
    INDEX 01 00:00:00
  TRACK 05 AUDIO
    TITLE "War Games"
    PERFORMER "Steve Kipner"
    INDEX 00 03:58:57
FILE "05 - War Games.wav" WAVE
    INDEX 01 00:00:00
FILE "06 - I've Got to Stop This Hurting You.wav" WAVE
  TRACK 06 AUDIO
    TITLE "I've Got to Stop This Hurting You"
    PERFORMER "Steve Kipner"
    INDEX 01 00:00:00
  TRACK 07 AUDIO
    TITLE "Love Is Its Own Reward"
    PERFORMER "Steve Kipner"
    INDEX 00 03:30:19
FILE "07 - Love Is Its Own Reward.wav" WAVE
    INDEX 01 00:00:00
  TRACK 08 AUDIO
    TITLE "Cryin' Out for Love"
    PERFORMER "Steve Kipner"
    INDEX 00 03:26:51
FILE "08 - Cryin' Out for Love.wav" WAVE
    INDEX 01 00:00:00
FILE "09 - Guilty.wav" WAVE
  TRACK 09 AUDIO
    TITLE "Guilty"
    PERFORMER "Steve Kipner"
    INDEX 01 00:00:00
FILE "10 - The Ending.wav" WAVE
  TRACK 10 AUDIO
    TITLE "The Ending"
    PERFORMER "Steve Kipner"
    INDEX 01 00:00:00
Код:
[CUETools log; Date: 04.06.2017 20:44:50; Version: 2.1.5]
[CTDB TOCID: aQ.7kcRXG6zDImYgLD6mUCyNCU0-] found.
Track | CTDB Status
  1   | (16/16) Accurately ripped
  2   | (16/16) Accurately ripped
  3   | (16/16) Accurately ripped
  4   | (16/16) Accurately ripped
  5   | (16/16) Accurately ripped
  6   | (16/16) Accurately ripped
  7   | (16/16) Accurately ripped
  8   | (16/16) Accurately ripped
  9   | (16/16) Accurately ripped
 10   | (16/16) Accurately ripped
[AccurateRip ID: 000d36c5-006a61be-6e083f0a] found.
Track   [  CRC   |   V2   ] Status
 01     [d6d1e3bf|aa283006] (0+6/6) Accurately ripped
 02     [e78ae7d0|cce73b24] (0+6/6) Accurately ripped
 03     [e665955f|1d50a287] (0+6/6) Accurately ripped
 04     [09303d60|e1cda1ad] (0+6/6) Accurately ripped
 05     [2b762d30|eb5840e5] (0+6/6) Accurately ripped
 06     [832d5a3f|33f23f84] (0+6/6) Accurately ripped
 07     [40d63a22|23813cb8] (0+6/6) Accurately ripped
 08     [45214cee|128c0a4c] (0+6/6) Accurately ripped
 09     [d4127a3f|80d20381] (0+6/6) Accurately ripped
 10     [ec2029bb|d7e745f2] (0+6/6) Accurately ripped
Track Peak [ CRC32  ] [W/O NULL] [  LOG   ]
 --  100,0 [3884A8CE] [938814B0]
 01  100,0 [8025D2DE] [3BBD2085]   CRC32
 02  100,0 [ED10E7E4] [592C7740]   CRC32
 03  100,0 [0FBD105F] [519FEFE5]   CRC32
 04  100,0 [0DCCDBF1] [2DA16F94]   CRC32
 05  100,0 [3186F74D] [9832EA52]   CRC32
 06  100,0 [48A6CBDF] [936D07B7]   CRC32
 07  100,0 [678566CE] [DCDBB241]   CRC32
 08  100,0 [EFB2373E] [8EAED3AE]   CRC32
 09  100,0 [8CEE7F85] [90C72989]   CRC32
 10  100,0 [C1FD32BB] [BF1EDBA6]   CRC32
Правила, инструкции, FAQ!!!
Торрент  Добавлен [26 мар 2019, 20:38] Скачать торрент Магнет ссылка
Скачать торрент
[ Размер 19.44 КБ / Просмотров 7 ]

Статус
Проверен 
 
Размер  232.21 МБ
Приватный: Нет (DHT включён)
.torrent скачан  1
 


     Отправить личное сообщение
   
Страница 1 из 1
Показать сообщения за:  Поле сортировки  
Начать новую тему Ответить на тему


Сейчас этот форум просматривают: нет зарегистрированных пользователей и гости: 0


Вы не можете начинать темы
Вы не можете отвечать на сообщения
Вы не можете редактировать свои сообщения
Вы не можете удалять свои сообщения
Вы не можете добавлять вложения

Перейти:  
cron