Начать новую тему Ответить на тему
Статистика раздачи
Размер: 763.33 МБ | Добавлен: 28 апр 2020, 19:53 | Скачали: 2
Сидеров: 5  [0 байт/сек]    Личеров: 0  [0 байт/сек]
Пред. тема | След. тема 

Автор
Сообщение

СообщениеДобавлено: 28 апр 2020, 19:53 

Ответить с цитатой 

Smokie - Smokie Forever. Ihre 32 Grössten Hits - 1990
Жанр: Pop-Rock & Soft Rock
Носитель: CD (compilation)
Страна-производитель диска (релиза): Germany
Год издания оригинала: 1990
Издатель (лейбл): BMG Ariola
Номер по каталогу: 353 923
Страна исполнителя (группы) : UK
Аудио кодек: FLAC (*.flac)
Тип рипа: (image + .cue)
Битрейт аудио: lossless
Наличие сканов в содержимом раздачи: full scans
Продолжительность: 1:55:42
Источник (релизер): Unknown
#777Трэклист:
01. Living Next Door To Alice
02. Something's Been Making Me Blue
03. Don't Play Your Rock'N'Roll To Me
04. I Can't Stay Here Tonight
05. Poor Lady (Midnight Baby)
06. It's Your Life
07. Changing All The Time
08. Mexican Girl
09. Lay Back In The Arms Of Someone
10. Stranger
11. Talking Her Round
12. For A Few Dollars More
13. The Dancer
14. Now You Think You Know
15. We're Flyin' High
16. Needles And Pins
Код:
Exact Audio Copy V0.99 prebeta 4 from 23. January 2008
Отчёт EAC об извлечении, выполненном 7. апреля 2009, 21:17
Smokie / Smokie Forever (CD1)
Дисковод: Optiarc DVD RW AD-7200S   Adapter: 0  ID: 0
Режим чтения                 : Достоверность
Использование точного потока : Да
Отключение кэша аудио        : Да
Использование указателей C2  : Нет
Коррекция смещения при чтении                     : 48
Способность читать области Lead-in и Lead-out     : Да
Заполнение пропущенных сэмплов тишиной            : Да
Удаление блоков с тишиной в начале и конце        : Нет
При вычислениях CRC использовались нулевые сэмплы : Да
Интерфейс                                         : Установленный внешний ASPI-интерфейс
Выходной формат          : Пользовательский кодировщик
Выбранный битрейт        : 1024 kBit/s
Качество                 : Высокий
Добавление ID3-тэга      : Нет
Утилита сжатия           : I:\Program Files\Exact Audio Copy\FLAC\FLAC.EXE
Дополнительные параметры : -6 -V -T "ARTIST=%a" -T "TITLE=%t" -T "ALBUM=%g" -T "DATE=%y" -T "TRACKNUMBER=%n" -T "GENRE=%m" -T "COMMENT=%e" %s -o %d
TOC извлечённого CD
     Трек |   Старт  | Длительность | Начальный сектор | Конечный сектор
    ---------------------------------------------------------------------
       1  |  0:00.00 |    3:30.40   |           0      |      15789
       2  |  3:30.40 |    3:02.25   |       15790      |      29464
       3  |  6:32.65 |    3:19.20   |       29465      |      44409
       4  |  9:52.10 |    4:08.55   |       44410      |      63064
       5  | 14:00.65 |    4:43.17   |       63065      |      84306
       6  | 18:44.07 |    3:35.38   |       84307      |     100469
       7  | 22:19.45 |    3:24.02   |      100470      |     115771
       8  | 25:43.47 |    4:00.30   |      115772      |     133801
       9  | 29:44.02 |    4:07.05   |      133802      |     152331
      10  | 33:51.07 |    4:40.53   |      152332      |     173384
      11  | 38:31.60 |    2:42.20   |      173385      |     185554
      12  | 41:14.05 |    3:35.05   |      185555      |     201684
      13  | 44:49.10 |    3:52.72   |      201685      |     219156
      14  | 48:42.07 |    3:29.15   |      219157      |     234846
      15  | 52:11.22 |    3:55.05   |      234847      |     252476
      16  | 56:06.27 |    2:43.23   |      252477      |     264724
Характеристики диапазона извлечения и сообщения об ошибках
Выбранный диапазон
     Имя файла C:\Smokie - Forever.CD1.1990\Smokie - Smokie Forever (CD1).wav
     Пиковый уровень 96.7 %
     Качество диапазона 100.0 %
     CRC копии 10A33B86
     Копирование... OK
Ошибок не произошло
Конец отчёта
Код:
REM GENRE Rock
REM DATE 1990
PERFORMER "Smokie"
TITLE "Smokie Forever (CD1)"
FILE "Smokie - Smokie Forever (CD1).flac" WAVE
  TRACK 01 AUDIO
    TITLE "Living Next Door To Alice"
    INDEX 01 00:00:00
  TRACK 02 AUDIO
    TITLE "Something's Been Making Me Blue"
    INDEX 00 03:27:52
    INDEX 01 03:30:40
  TRACK 03 AUDIO
    TITLE "Don't Play Your Rock 'N' Roll To Me"
    INDEX 00 06:30:45
    INDEX 01 06:32:65
  TRACK 04 AUDIO
    TITLE "I Can't Stay Here Tonight"
    INDEX 00 09:49:62
    INDEX 01 09:52:10
  TRACK 05 AUDIO
    TITLE "Poor Lady (Midnight Baby)"
    INDEX 00 13:58:45
    INDEX 01 14:00:65
  TRACK 06 AUDIO
    TITLE "It's Your Life"
    INDEX 00 18:42:07
    INDEX 01 18:44:07
  TRACK 07 AUDIO
    TITLE "Changing All The Time"
    INDEX 00 22:16:72
    INDEX 01 22:19:45
  TRACK 08 AUDIO
    TITLE "Mexican Girl"
    INDEX 00 25:41:31
    INDEX 01 25:43:47
  TRACK 09 AUDIO
    TITLE "Lay Back In The Arms Of Someone"
    INDEX 00 29:41:15
    INDEX 01 29:44:02
  TRACK 10 AUDIO
    TITLE "Stranger"
    INDEX 00 33:48:72
    INDEX 01 33:51:07
  TRACK 11 AUDIO
    TITLE "Talking Her Round"
    INDEX 00 38:29:58
    INDEX 01 38:31:60
  TRACK 12 AUDIO
    TITLE "For A Few Dollars More"
    INDEX 00 41:11:12
    INDEX 01 41:14:05
  TRACK 13 AUDIO
    TITLE "The Dancer"
    INDEX 00 44:47:55
    INDEX 01 44:49:10
  TRACK 14 AUDIO
    TITLE "Now You Think You Know"
    INDEX 00 48:39:50
    INDEX 01 48:42:07
  TRACK 15 AUDIO
    TITLE "We're Flyin' High"
    INDEX 00 52:09:00
    INDEX 01 52:11:22
  TRACK 16 AUDIO
    TITLE "Needles And Pins"
    INDEX 00 56:04:15
    INDEX 01 56:06:27
Код:
-----------------------
DON'T MODIFY THIS FILE
-----------------------
PERFORMER: auCDtect Task Manager, ver. 1.6.0 RC1 build 1.6.0.1
Copyright (c) 2008-2010 y-soft. All rights reserved
[url=http://y-soft.org]http://y-soft.org[/url]
ANALYZER: auCDtect: CD records authenticity detector, version 0.8.2
Copyright (c) 2004 Oleg Berngardt. All rights reserved.
Copyright (c) 2004 Alexander Djourik. All rights reserved.
FILE: Smokie - Smokie Forever (CD1).flac
  Size: 393441112 Hash: A539E5B267786623791417383CE94235 Accuracy: -m0
  Conclusion: CDDA 99%
  Signature: CEA505B1D79CA4220A5B18A8F67637CCE8F18163
Код:
[CUETools log; Date: 11.04.2020 15:39:28; Version: 2.1.5]
[CTDB TOCID: nhiej_AIQYE2KfNmq0UxWSYfGgM-] found.
Track | CTDB Status
  1   | (300/300) Accurately ripped
  2   | (299/300) Accurately ripped
  3   | (299/300) Accurately ripped
  4   | (300/300) Accurately ripped
  5   | (300/300) Accurately ripped
  6   | (297/300) Accurately ripped
  7   | (298/300) Accurately ripped
  8   | (300/300) Accurately ripped
  9   | (300/300) Accurately ripped
 10   | (299/300) Accurately ripped
 11   | (300/300) Accurately ripped
 12   | (299/300) Accurately ripped
 13   | (297/300) Accurately ripped
 14   | (295/300) Accurately ripped
 15   | (296/300) Accurately ripped
 16   | (280/300) Differs in 3612 samples @01:15:07,02:42:74-02:43:09, or (2/300) differs in 638 samples @01:15:07,02:42:74-02:43:01
[AccurateRip ID: 0022a80c-01a1848f-d40dc910] found.
Track   [  CRC   |   V2   ] Status
 01     [fdaed835|f7b93420] (000+000/122) No match
 02     [b0add930|8f8266a4] (000+000/118) No match
 03     [e1c3be33|f6f767d3] (000+000/120) No match
 04     [61188536|30049800] (000+000/117) No match
 05     [7d1133cf|aa368b0d] (000+000/117) No match
 06     [86cd2523|52f918ba] (000+000/118) No match
 07     [33535ad4|b126e138] (000+000/118) No match
 08     [1adf7d16|d87fb0aa] (000+000/119) No match
 09     [e78fbb79|159f111c] (000+000/121) No match
 10     [12faacbc|b9931f8e] (000+000/118) No match
 11     [0d280902|8d847e73] (000+000/117) No match
 12     [999646d4|e0cdfd42] (000+000/119) No match
 13     [c7d7ebdc|27247bcd] (000+000/117) No match
 14     [ccdc6e43|0eb3f3df] (000+000/117) No match
 15     [8e06e609|ceb477b8] (000+000/117) No match
 16     [d5def563|4c511a57] (000+000/119) No match
Offsetted by -1363:
 01     [a163ea03] (000/122) No match (V2 was not tested)
 02     [3fa1fc42] (000/118) No match (V2 was not tested)
 03     [731cb324] (000/120) No match (V2 was not tested)
 04     [d8520396] (000/117) No match (V2 was not tested)
 05     [a49e7b00] (000/117) No match (V2 was not tested)
 06     [3f4a6cd7] (000/118) No match (V2 was not tested)
 07     [c3802aaa] (000/118) No match (V2 was not tested)
 08     [445f1d92] (000/119) No match (V2 was not tested)
 09     [4d1b5f77] (000/121) No match (V2 was not tested)
 10     [07a2cf0c] (000/118) No match (V2 was not tested)
 11     [0f6467ed] (000/117) No match (V2 was not tested)
 12     [251d3206] (000/119) No match (V2 was not tested)
 13     [a594eba0] (000/117) No match (V2 was not tested)
 14     [f51b904b] (000/117) No match (V2 was not tested)
 15     [2a2c3c4a] (000/117) No match (V2 was not tested)
 16     [07fea9cc] (000/119) No match (V2 was not tested)
Offsetted by -1045:
 01     [af63ede1] (002/122) Accurately ripped
 02     [eb12558e] (000/118) No match
 03     [367befd0] (000/120) No match
 04     [86c993d6] (000/117) No match
 05     [39b96f16] (000/117) No match
 06     [1770cfcf] (000/118) No match
 07     [6803b44e] (000/118) No match
 08     [5b8ee8ba] (000/119) No match
 09     [d93ded75] (000/121) No match
 10     [ca004a02] (002/118) Accurately ripped
 11     [7bce86bf] (000/117) No match
 12     [214c3a12] (000/119) No match
 13     [fca5ddf8] (000/117) No match
 14     [c82280da] (000/117) No match
 15     [73efe2cb] (000/117) No match
 16     [7b388bc8] (000/119) No match (V2 was not tested)
Offsetted by 150:
 01     [17a162bf] (002/122) Accurately ripped
 02     [8e5b556c] (002/118) Accurately ripped
 03     [08080e7b] (002/120) Accurately ripped
 04     [91948a76] (002/117) Accurately ripped
 05     [45d0a21d] (002/117) Accurately ripped
 06     [52315d7b] (002/118) Accurately ripped
 07     [03577048] (002/118) Accurately ripped
 08     [5148255e] (002/119) Accurately ripped
 09     [8631b2a3] (002/121) Accurately ripped
 10     [995ff896] (002/118) Accurately ripped
 11     [2824f5bc] (002/117) Accurately ripped
 12     [677c28d0] (002/119) Accurately ripped
 13     [d8c2ef14] (002/117) Accurately ripped
 14     [4a0e997c] (002/117) Accurately ripped
 15     [e06085f4] (002/117) Accurately ripped
 16     [5d94113b] (000/119) No match (V2 was not tested)
Offsetted by 268:
 01     [031592f1] (000/122) No match (V2 was not tested)
 02     [2f6a5e68] (000/118) No match (V2 was not tested)
 03     [25cea5bb] (000/120) No match (V2 was not tested)
 04     [54bc13b6] (000/117) No match (V2 was not tested)
 05     [cf41adcb] (000/117) No match (V2 was not tested)
 06     [1b277553] (000/118) No match (V2 was not tested)
 07     [e7d587fc] (000/118) No match (V2 was not tested)
 08     [ca971026] (000/119) No match (V2 was not tested)
 09     [5c0f3175] (000/121) No match (V2 was not tested)
 10     [35f8d408] (000/118) No match (V2 was not tested)
 11     [c5e88396] (000/117) No match (V2 was not tested)
 12     [fbce038c] (000/119) No match (V2 was not tested)
 13     [6e9a87cc] (000/117) No match (V2 was not tested)
 14     [05f1fd51] (000/117) No match (V2 was not tested)
 15     [9f203a0b] (000/117) No match (V2 was not tested)
 16     [fe9ee90b] (000/119) No match (V2 was not tested)
Offsetted by 819:
 01     [43b56659] (009/122) Accurately ripped
 02     [eb190ede] (009/118) Accurately ripped
 03     [f00cdff0] (009/120) Accurately ripped
 04     [a742cad6] (009/117) Accurately ripped
 05     [214f5ffe] (009/117) Accurately ripped
 06     [a4ffb4ef] (009/118) Accurately ripped
 07     [ff40b13e] (009/118) Accurately ripped
 08     [62aa471a] (009/119) Accurately ripped
 09     [fcfcb96d] (009/121) Accurately ripped
 10     [c7ba73ba] (009/118) Accurately ripped
 11     [ba1c5d37] (008/117) Accurately ripped
 12     [3b3ae062] (009/119) Accurately ripped
 13     [bdd0d998] (009/117) Accurately ripped
 14     [6e5b7e46] (009/117) Accurately ripped
 15     [54b416cf] (009/117) Accurately ripped
 16     [826c1ca8] (000/119) No match (V2 was not tested)
Offsetted by 935:
 01     [6c440475] (031/122) Accurately ripped
 02     [d225f0a6] (030/118) Accurately ripped
 03     [83818810] (030/120) Accurately ripped
 04     [d3950c56] (030/117) Accurately ripped
 05     [c6cb8582] (030/117) Accurately ripped
 06     [2dceeabf] (030/118) Accurately ripped
 07     [55066916] (030/118) Accurately ripped
 08     [9027960a] (030/119) Accurately ripped
 09     [80180449] (031/121) Accurately ripped
 10     [0bec7496] (030/118) Accurately ripped
 11     [e00c5523] (030/117) Accurately ripped
 12     [8bf37aaa] (030/119) Accurately ripped
 13     [dbf73ba8] (030/117) Accurately ripped
 14     [61bcf2fc] (029/117) Accurately ripped
 15     [a0714261] (030/117) Accurately ripped
 16     [9b423ca8] (000/119) No match (V2 was not tested)
Track Peak [ CRC32  ] [W/O NULL] [  LOG   ]
 --   96,7 [10A33B86] [788B3805]   CRC32
 01   80,0 [38E558BC] [42B09D4E]
 02   80,5 [D889DDCC] [E7943C68]
 03   82,8 [A3452F52] [A37026FE]
 04   82,0 [749D56A0] [B660C4C0]
 05   90,8 [7F33C267] [5EBCE328]
 06   96,7 [325F815D] [53CB127A]
 07   80,8 [6C7938A4] [BF051ED8]
 08   82,7 [F8EF7DBF] [61E13AE5]
 09   94,4 [59B6644A] [4540A2F3]
 10   96,4 [304941E2] [5F605B7E]
 11   94,4 [DE2CD8F2] [DD7DB4CD]
 12   87,9 [A7A8C5B5] [40B68087]
 13   91,2 [9F7DCF10] [192E7A39]
 14   88,2 [06B8532C] [63611D00]
 15   81,3 [3C73804E] [F0300729]
 16   87,3 [298727BD] [07217DD5]
Код:
     Track |   Start  |  Length  | Start sector | End sector
    ---------------------------------------------------------
        1  |  0:00.00 |  3:30.40 |         0    |    15789
        2  |  3:30.40 |  3:02.25 |     15790    |    29464
        3  |  6:32.65 |  3:19.20 |     29465    |    44409
        4  |  9:52.10 |  4:08.55 |     44410    |    63064
        5  | 14:00.65 |  4:43.17 |     63065    |    84306
        6  | 18:44.07 |  3:35.38 |     84307    |   100469
        7  | 22:19.45 |  3:24.02 |    100470    |   115771
        8  | 25:43.47 |  4:00.30 |    115772    |   133801
        9  | 29:44.02 |  4:07.05 |    133802    |   152331
       10  | 33:51.07 |  4:40.53 |    152332    |   173384
       11  | 38:31.60 |  2:42.20 |    173385    |   185554
       12  | 41:14.05 |  3:35.05 |    185555    |   201684
       13  | 44:49.10 |  3:52.72 |    201685    |   219156
       14  | 48:42.07 |  3:29.15 |    219157    |   234846
       15  | 52:11.22 |  3:55.05 |    234847    |   252476
       16  | 56:06.27 |  2:43.23 |    252477    |   264724
Код:
foobar2000 1.3.3 / Dynamic Range Meter 1.1.1
log date: 2020-04-11 15:38:27
--------------------------------------------------------------------------------
Analyzed: Smokie / Smokie Forever (CD1)
--------------------------------------------------------------------------------
DR         Peak         RMS     Duration Track
--------------------------------------------------------------------------------
DR13      -1.93 dB   -18.16 dB      3:31 01-Living Next Door To Alice
DR12      -1.87 dB   -16.29 dB      3:02 02-Something's Been Making Me Blue
DR14      -1.64 dB   -16.47 dB      3:19 03-Don't Play Your Rock 'N' Roll To Me
DR13      -1.72 dB   -16.11 dB      4:09 04-I Can't Stay Here Tonight
DR13      -0.83 dB   -15.43 dB      4:43 05-Poor Lady (Midnight Baby)
DR14      -0.29 dB   -17.81 dB      3:36 06-It's Your Life
DR12      -1.85 dB   -16.69 dB      3:24 07-Changing All The Time
DR13      -1.64 dB   -17.54 dB      4:00 08-Mexican Girl
DR11      -0.50 dB   -14.24 dB      4:07 09-Lay Back In The Arms Of Someone
DR14      -0.32 dB   -16.45 dB      4:41 10-Stranger
DR14      -0.49 dB   -17.25 dB      2:42 11-Talking Her Round
DR12      -1.12 dB   -15.57 dB      3:35 12-For A Few Dollars More
DR12      -0.80 dB   -15.72 dB      3:53 13-The Dancer
DR14      -1.09 dB   -16.61 dB      3:29 14-Now You Think You Know
DR12      -1.80 dB   -15.95 dB      3:55 15-We're Flyin' High
DR13      -1.17 dB   -16.36 dB      2:43 16-Needles And Pins
--------------------------------------------------------------------------------
Number of tracks:  16
Official DR value: DR13
Samplerate:        44100 Hz
Channels:          2
Bits per sample:   16
Bitrate:           892 kbps
Codec:             FLAC
================================================================================
#777Трэклист:
01. Stumblin' In
02. In The Heat Of The Night
03. Baby It's You
04. Oh Carol
05. Back To Bradford
06. The Coldest Night
07. Power Of Love
08. I'll Meet You At Midnight
09. If You Think You Know How To Love Me
10. Wild Wild Angels
11. Liverpool Docks
12. Petesey's Song
13. When My Back Was Against The Wall
14. Goin' Tomorrow
15. The Girl Can't Help It
16. I Do Declare
Код:
Exact Audio Copy V0.99 prebeta 4 from 23. January 2008
Отчёт EAC об извлечении, выполненном 7. апреля 2009, 21:37
Smokie / Smokie Forever (CD2)
Дисковод: Optiarc DVD RW AD-7200S   Adapter: 0  ID: 0
Режим чтения                 : Достоверность
Использование точного потока : Да
Отключение кэша аудио        : Да
Использование указателей C2  : Нет
Коррекция смещения при чтении                     : 48
Способность читать области Lead-in и Lead-out     : Да
Заполнение пропущенных сэмплов тишиной            : Да
Удаление блоков с тишиной в начале и конце        : Нет
При вычислениях CRC использовались нулевые сэмплы : Да
Интерфейс                                         : Установленный внешний ASPI-интерфейс
Выходной формат          : Пользовательский кодировщик
Выбранный битрейт        : 1024 kBit/s
Качество                 : Высокий
Добавление ID3-тэга      : Нет
Утилита сжатия           : I:\Program Files\Exact Audio Copy\FLAC\FLAC.EXE
Дополнительные параметры : -6 -V -T "ARTIST=%a" -T "TITLE=%t" -T "ALBUM=%g" -T "DATE=%y" -T "TRACKNUMBER=%n" -T "GENRE=%m" -T "COMMENT=%e" %s -o %d
TOC извлечённого CD
     Трек |   Старт  | Длительность | Начальный сектор | Конечный сектор
    ---------------------------------------------------------------------
       1  |  0:00.00 |    3:59.73   |           0      |      17997
       2  |  3:59.73 |    4:49.05   |       17998      |      39677
       3  |  8:49.03 |    3:52.50   |       39678      |      57127
       4  | 12:41.53 |    3:41.47   |       57128      |      73749
       5  | 16:23.25 |    2:44.18   |       73750      |      86067
       6  | 19:07.43 |    4:16.05   |       86068      |     105272
       7  | 23:23.48 |    1:58.20   |      105273      |     114142
       8  | 25:21.68 |    3:17.42   |      114143      |     128959
       9  | 28:39.35 |    3:26.23   |      128960      |     144432
      10  | 32:05.58 |    3:58.02   |      144433      |     162284
      11  | 36:03.60 |    2:59.43   |      162285      |     175752
      12  | 39:03.28 |    2:54.10   |      175753      |     188812
      13  | 41:57.38 |    3:36.55   |      188813      |     205067
      14  | 45:34.18 |    3:44.65   |      205068      |     221932
      15  | 49:19.08 |    3:49.52   |      221933      |     239159
      16  | 53:08.60 |    3:44.10   |      239160      |     255969
Характеристики диапазона извлечения и сообщения об ошибках
Выбранный диапазон
     Имя файла C:\Smokie - Forever.CD2.1990\Smokie - Smokie Forever CD 2.wav
     Пиковый уровень 97.8 %
     Качество диапазона 100.0 %
     CRC копии 8666B511
     Копирование... OK
Ошибок не произошло
Конец отчёта
Код:
REM GENRE Rock
REM DATE 1990
PERFORMER "Smokie"
TITLE "Smokie Forever (CD2)"
FILE "Smokie - Smokie Forever (CD2).flac" WAVE
  TRACK 01 AUDIO
    TITLE "Stumblin' In (Chris Norman & Suzi Quatro)"
    INDEX 01 00:00:00
  TRACK 02 AUDIO
    TITLE "In The Heat Of The Night"
    INDEX 00 03:57:20
    INDEX 01 03:59:73
  TRACK 03 AUDIO
    TITLE "Baby It's You"
    INDEX 00 08:47:43
    INDEX 01 08:49:03
  TRACK 04 AUDIO
    TITLE "Oh Carol"
    INDEX 00 12:39:08
    INDEX 01 12:41:53
  TRACK 05 AUDIO
    TITLE "Back To Bradford"
    INDEX 00 16:21:00
    INDEX 01 16:23:25
  TRACK 06 AUDIO
    TITLE "The Coldest Night"
    INDEX 00 19:05:15
    INDEX 01 19:07:43
  TRACK 07 AUDIO
    TITLE "Power Of Love"
    INDEX 00 23:21:50
    INDEX 01 23:23:48
  TRACK 08 AUDIO
    TITLE "I'll Meet You At Midnight"
    INDEX 00 25:19:65
    INDEX 01 25:21:68
  TRACK 09 AUDIO
    TITLE "If You Think You Know How To Love Me"
    INDEX 00 28:37:05
    INDEX 01 28:39:35
  TRACK 10 AUDIO
    TITLE "Wild Wild Angels"
    INDEX 00 32:04:08
    INDEX 01 32:05:58
  TRACK 11 AUDIO
    TITLE "Liverpool Docks"
    INDEX 00 36:01:08
    INDEX 01 36:03:60
  TRACK 12 AUDIO
    TITLE "Petesey's Song"
    INDEX 00 39:00:45
    INDEX 01 39:03:28
  TRACK 13 AUDIO
    TITLE "When My Back Was Against The Wall"
    INDEX 00 41:55:63
    INDEX 01 41:57:38
  TRACK 14 AUDIO
    TITLE "Goin' Tomorrow"
    INDEX 00 45:32:28
    INDEX 01 45:34:18
  TRACK 15 AUDIO
    TITLE "The Girl Can't Help It"
    INDEX 00 49:16:35
    INDEX 01 49:19:08
  TRACK 16 AUDIO
    TITLE "I Do Declare"
    INDEX 00 53:06:10
    INDEX 01 53:08:60
Код:
-----------------------
DON'T MODIFY THIS FILE
-----------------------
PERFORMER: auCDtect Task Manager, ver. 1.6.0 RC1 build 1.6.0.1
Copyright (c) 2008-2010 y-soft. All rights reserved
[url=http://y-soft.org]http://y-soft.org[/url]
ANALYZER: auCDtect: CD records authenticity detector, version 0.8.2
Copyright (c) 2004 Oleg Berngardt. All rights reserved.
Copyright (c) 2004 Alexander Djourik. All rights reserved.
FILE: Smokie - Smokie Forever (CD2).flac
  Size: 402780239 Hash: BD098B36921B3EF0C75C70CC805A1C07 Accuracy: -m0
  Conclusion: CDDA 100%
  Signature: 889A18F1CCC0FEB352890920FBA6DD927FD94A2F
Код:
[CUETools log; Date: 11.04.2020 15:39:34; Version: 2.1.5]
[CTDB TOCID: SOlL62UeEI0gbWjMZeK4HlpsQnE-] found.
Track | CTDB Status
  1   | (267/267) Accurately ripped
  2   | (267/267) Accurately ripped
  3   | (267/267) Accurately ripped
  4   | (266/267) Accurately ripped
  5   | (267/267) Accurately ripped
  6   | (267/267) Accurately ripped
  7   | (265/267) Accurately ripped
  8   | (267/267) Accurately ripped
  9   | (267/267) Accurately ripped
 10   | (267/267) Accurately ripped
 11   | (267/267) Accurately ripped
 12   | (267/267) Accurately ripped
 13   | (266/267) Accurately ripped
 14   | (262/267) Accurately ripped, or (4/267) differs in 2673 samples @01:00:23,01:00:40,01:00:57-01:00:58,01:00:74-01:01:00,01:01:17,01:01:34-01:01:35,01:01:51-01:01:52,01:01:68-01:01:69,01:02:11,01:02:28-01:02:29,01:02:45-01:02:48,01:02:62-01:02:65,01:03:05,01:03:22-01:03:25,01:03:39-01:03:42,01:03:56-01:03:57,01:03:74,01:04:16-01:04:19,01:04:33-01:04:34,01:04:50-01:04:53,01:04:68,01:05:10,01:05:27-01:05:28,01:05:44-01:05:45,01:05:62,01:06:04-01:06:05,01:07:33,01:09:38,01:10:15,01:10:32-01:10:33,01:10:49-01:10:50,01:11:09-01:11:10,01:11:27,01:11:43-01:11:44,01:11:61,01:12:20,01:12:73,01:13:14
 15   | (264/267) Accurately ripped
 16   | (265/267) Accurately ripped
[AccurateRip ID: 0021d1dd-01908cdf-d80d5410] found.
Track   [  CRC   |   V2   ] Status
 01     [7852c63a|adc1af29] (000+000/123) No match
 02     [4048cd74|a3265386] (000+000/117) No match
 03     [2f4d2db4|28ed1055] (000+000/118) No match
 04     [79b42ae9|e1273b88] (000+000/121) No match
 05     [eba95bee|ba28749b] (000+000/118) No match
 06     [106eb1dc|a6b08c87] (000+000/118) No match
 07     [af21ca37|42546aa3] (000+000/115) No match
 08     [84b68ee4|6a1f16f9] (000+000/118) No match
 09     [a88f53f9|dac1fde1] (000+000/119) No match
 10     [493ccfd0|65b5152a] (000+000/116) No match
 11     [cb807449|e0f85957] (000+000/116) No match
 12     [b90e7367|ef3b04c1] (000+000/118) No match
 13     [4e921e5f|8de1d5e4] (000+000/117) No match
 14     [6519b26a|19978f01] (000+000/116) No match
 15     [403c5b67|b142b56a] (000+000/115) No match
 16     [73f28ba7|8382f1d7] (000+000/113) No match
Offsetted by 151:
 01     [318ad710] (011/123) Accurately ripped
 02     [0d9ccb23] (010/117) Accurately ripped
 03     [baac145d] (010/118) Accurately ripped
 04     [1a8f8353] (010/121) Accurately ripped
 05     [f92375a7] (010/118) Accurately ripped
 06     [b59398fb] (010/118) Accurately ripped
 07     [8b0179a8] (010/115) Accurately ripped
 08     [e585fcc9] (010/118) Accurately ripped
 09     [609194a2] (010/119) Accurately ripped
 10     [204d0555] (010/116) Accurately ripped
 11     [ef7adc54] (010/116) Accurately ripped
 12     [5cba34c0] (010/118) Accurately ripped
 13     [88c3fdf2] (010/117) Accurately ripped
 14     [820ae5b8] (010/116) Accurately ripped
 15     [33fe065c] (010/115) Accurately ripped
 16     [661c0f6d] (010/113) Accurately ripped
Offsetted by 271:
 01     [ee368ec4] (032/123) Accurately ripped
 02     [e6402ad7] (032/117) Accurately ripped
 03     [e2399de5] (031/118) Accurately ripped
 04     [43ee2523] (032/121) Accurately ripped
 05     [e03efbaf] (032/118) Accurately ripped
 06     [c73a3fb3] (032/118) Accurately ripped
 07     [6ae7cb70] (030/115) Accurately ripped
 08     [4f47a731] (030/118) Accurately ripped
 09     [a8346e2a] (031/119) Accurately ripped
 10     [2f3d14bd] (030/116) Accurately ripped
 11     [b8ffbd6c] (031/116) Accurately ripped
 12     [6b831fc8] (031/118) Accurately ripped
 13     [2f624d4a] (031/117) Accurately ripped
 14     [38683fa8] (031/116) Accurately ripped
 15     [d3cc7d44] (030/115) Accurately ripped
 16     [4ca4ba25] (030/113) Accurately ripped
Offsetted by -687:
 01     [e3756761] (000/123) No match (V2 was not tested)
 02     [5e5af980] (000/117) No match (V2 was not tested)
 03     [59a94723] (000/118) No match (V2 was not tested)
 04     [534332ef] (000/121) No match (V2 was not tested)
 05     [80922fcd] (000/118) No match (V2 was not tested)
 06     [d82e3765] (000/118) No match (V2 was not tested)
 07     [73b4cf9e] (000/115) No match (V2 was not tested)
 08     [3a7505b7] (000/118) No match (V2 was not tested)
 09     [280b0368] (000/119) No match (V2 was not tested)
 10     [4084de03] (000/116) No match (V2 was not tested)
 11     [bd015206] (000/116) No match (V2 was not tested)
 12     [179cfea6] (000/118) No match (V2 was not tested)
 13     [4e47cb54] (000/117) No match (V2 was not tested)
 14     [f77675ec] (000/116) No match (V2 was not tested)
 15     [2d57f2aa] (000/115) No match (V2 was not tested)
 16     [fc3d40cb] (000/113) No match (V2 was not tested)
Offsetted by -518:
 01     [630ed775] (002/123) Accurately ripped
 02     [3bb30ea7] (002/117) Accurately ripped
 03     [37c3cf3a] (002/118) Accurately ripped
 04     [20b98a05] (002/121) Accurately ripped
 05     [30b6d0d4] (002/118) Accurately ripped
 06     [0cc5b786] (002/118) Accurately ripped
 07     [9790a4ed] (002/115) Accurately ripped
 08     [9e54b392] (002/118) Accurately ripped
 09     [8465b17f] (002/119) Accurately ripped
 10     [e69f7c3e] (002/116) Accurately ripped
 11     [b269423b] (002/116) Accurately ripped
 12     [f0b3b00d] (002/118) Accurately ripped
 13     [7b116a01] (002/117) Accurately ripped
 14     [1628dd1e] (002/116) Accurately ripped
 15     [39122f75] (000/115) No match (V2 was not tested)
 16     [07dab259] (000/113) No match (V2 was not tested)
Track Peak [ CRC32  ] [W/O NULL] [  LOG   ]
 --   97,8 [8666B511] [0762AF0B]   CRC32
 01   95,7 [37318FB0] [4D31BFA1]
 02   86,7 [25D50B24] [460DD69C]
 03   90,9 [6E76D662] [BF636941]
 04   87,5 [E220C2B7] [0ABD4177]
 05   86,4 [51C7EA23] [C8B661D0]
 06   81,5 [25CB56A7] [D1FE6136]
 07   86,9 [52A8B67B] [07661E90]
 08   88,3 [4886890A] [50DBC231]
 09   87,7 [3C46F2D5] [70F2F13E]
 10   91,4 [80F4FFF4] [678BB9E9]
 11   87,3 [18FF036C] [C44FE699]
 12   86,7 [A53F213F] [E19171E2]
 13   70,6 [F17A75CE] [F545188A]
 14   97,7 [08B1D484] [6CE2A2EF]
 15   96,6 [D8D96913] [6A1AAB2E]
 16   97,8 [FAF7768F] [F6455C7C]
Код:
     Track |   Start  |  Length  | Start sector | End sector
    ---------------------------------------------------------
        1  |  0:00.00 |  3:59.73 |         0    |    17997
        2  |  3:59.73 |  4:49.05 |     17998    |    39677
        3  |  8:49.03 |  3:52.50 |     39678    |    57127
        4  | 12:41.53 |  3:41.47 |     57128    |    73749
        5  | 16:23.25 |  2:44.18 |     73750    |    86067
        6  | 19:07.43 |  4:16.05 |     86068    |   105272
        7  | 23:23.48 |  1:58.20 |    105273    |   114142
        8  | 25:21.68 |  3:17.42 |    114143    |   128959
        9  | 28:39.35 |  3:26.23 |    128960    |   144432
       10  | 32:05.58 |  3:58.02 |    144433    |   162284
       11  | 36:03.60 |  2:59.43 |    162285    |   175752
       12  | 39:03.28 |  2:54.10 |    175753    |   188812
       13  | 41:57.38 |  3:36.55 |    188813    |   205067
       14  | 45:34.18 |  3:44.65 |    205068    |   221932
       15  | 49:19.08 |  3:49.52 |    221933    |   239159
       16  | 53:08.60 |  3:44.10 |    239160    |   255969
Код:
foobar2000 1.3.3 / Dynamic Range Meter 1.1.1
log date: 2020-04-11 15:38:34
--------------------------------------------------------------------------------
Analyzed: Smokie / Smokie Forever (CD2)
--------------------------------------------------------------------------------
DR         Peak         RMS     Duration Track
--------------------------------------------------------------------------------
DR13      -0.38 dB   -15.35 dB      4:00 01-Stumblin' In (Chris Norman & Suzi Quatro)
DR13      -1.24 dB   -17.10 dB      4:49 02-In The Heat Of The Night
DR11      -0.82 dB   -15.59 dB      3:53 03-Baby It's You
DR13      -1.16 dB   -16.25 dB      3:42 04-Oh Carol
DR14      -1.27 dB   -17.10 dB      2:44 05-Back To Bradford
DR12      -1.77 dB   -15.41 dB      4:16 06-The Coldest Night
DR13      -1.22 dB   -16.56 dB      1:58 07-Power Of Love
DR12      -1.08 dB   -17.10 dB      3:18 08-I'll Meet You At Midnight
DR12      -1.14 dB   -16.66 dB      3:26 09-If You Think You Know How To Love Me
DR11      -0.78 dB   -15.55 dB      3:58 10-Wild Wild Angels
DR12      -1.17 dB   -15.92 dB      3:00 11-Liverpool Docks
DR14      -1.23 dB   -17.26 dB      2:54 12-Petesey's Song
DR14      -3.01 dB   -20.94 dB      3:37 13-When My Back Was Against The Wall
DR12      -0.19 dB   -14.20 dB      3:45 14-Goin' Tomorrow
DR13      -0.30 dB   -15.06 dB      3:50 15-The Girl Can't Help It
DR11      -0.19 dB   -12.28 dB      3:44 16-I Do Declare
--------------------------------------------------------------------------------
Number of tracks:  16
Official DR value: DR13
Samplerate:        44100 Hz
Channels:          2
Bits per sample:   16
Bitrate:           944 kbps
Codec:             FLAC
================================================================================
Правила, инструкции, FAQ!!!
Торрент  Добавлен [28 апр 2020, 19:53] Скачать торрент Магнет ссылка
Скачать торрент
[ Размер 16.97 КБ / Просмотров 13 ]

Статус
Проверен 
 
Размер  763.33 МБ
Приватный: Нет (DHT включён)
.torrent скачан  2
 


     Отправить личное сообщение
   
Страница 1 из 1
Показать сообщения за:  Поле сортировки  
Начать новую тему Ответить на тему


Сейчас этот форум просматривают: нет зарегистрированных пользователей и гости: 0


Вы не можете начинать темы
Вы не можете отвечать на сообщения
Вы не можете редактировать свои сообщения
Вы не можете удалять свои сообщения
Вы не можете добавлять вложения

Перейти:  
cron