Начать новую тему Ответить на тему
Статистика раздачи
Размер: 411.99 МБ | Добавлен: 26 мар 2019, 19:53 | Скачали: 2
Сидеров: 3  [0 байт/сек]    Личеров: 7  [0 байт/сек]
Пред. тема | След. тема 

Автор
Сообщение

СообщениеДобавлено: 26 мар 2019, 19:53 

Ответить с цитатой 

Seweryn Krajewski / Gold
Жанр: Pop-Rock & Soft Rock
Страна-производитель диска: Polska
Год издания диска: 1999
Издатель (лейбл): Koch International
Страна: Polska
Аудио кодек: FLAC (*.flac)
Тип рипа: tracks
Битрейт аудио: lossless
Продолжительность: 72:42
Источник (релизер): polishbytes
Наличие сканов в содержимом раздачи: да
Треклист:
1.Baw Mnie
2.Wakacje W Amsterdamie
3.Czekasz Na Tę Jedną Chwilę
4.Najpiękniejsza
5.Uciekaj Moje Serce
6.Nie Mówmy O Zmartwieniach
7.Kiedy Mnie Już Nie Będzie
8.Zaufać Snom
9.Zielona Lipka
10.Co Każdy Chłopiec Wiedzieć Powinie
11.Przemija Uroda W Nas
12.Ziemio Błękitno-Szara
13.Wakacyjne Fotografie
14.Nie Jesteś Sama
15.Te Nasze Jesienie
16.Gołębi Song
17.Pod Niebami
18.Tam Gdzie Kochają Nas
19.Pijmy Wino Za Kolegów
20.Polskie Życie
Код:
Exact Audio Copy V0.99 prebeta 4 from 23. January 2008
Sprawozdanie ze zgrywania programem EAC z 5. Czerwca 2009, 4:43
Seweryn Krajewski / Gold - 1999 - PL - 2009 - AS4PB
Uїyty napкd: HL-DT-STDVD-ROM GDR8163B   Adapter: 0  ID: 1
Tryb odczytu:               : Bezpieczny
Dokіadny strumieс           : Tak
Neutralizacja bufora napкdu : Tak
Zwracanie bікdуw C2         : Nie
Korekta poіoїenia dla odczytu                                : 102
Nadczytywanie w obszarach LeadIn i LeadOut                   : Nie
Dopeіnianie cisz№ brakuj№cych prуbek                         : Tak
Usuwanie pocz№tkowych i koсcowych blokуw ciszy               : Nie
Do przeliczenia sumy kontrolnej CRC uїywane s№ prуbki zerowe : Nie
Interfejs                                                    : Wewnкtrzny interfejs Win32 dla Windows NT i 2000
Przerwy                                                      : Nie wykryte, zatem dodawane do poprzedniego nagrania
Uїyty format wyjњciowy        : Koder uїytkownika
Wybrana przepіywnoњж bitуw    : 320 kBit/s
Jakoњж                        : Wysoka
Dodawanie znacznikуw ID3      : Tak
Kompresor linii poleceс       : C:\Program Files\FLAC\flac.exe
Dodatkowe opcje linii poleceс : -8 -V -T "artist=%a" -T "title=%t" -T "album=%g" -T "date=%y" -T "tracknumber=%n" -T "genre=%m" %s
TOC zgranej pіyty
     Utwуr | Pocz№tek |  Dіugoњж | Sektor pocz№tkowy | Sektor koсcowy
    ------------------------------------------------------------------
        1  |  0:00.00 |  2:58.10 |           0       |      13359
        2  |  2:58.10 |  4:16.72 |       13360       |      32631
        3  |  7:15.07 |  4:55.28 |       32632       |      54784
        4  | 12:10.35 |  3:15.25 |       54785       |      69434
        5  | 15:25.60 |  3:33.57 |       69435       |      85466
        6  | 18:59.42 |  2:39.70 |       85467       |      97461
        7  | 21:39.37 |  3:17.13 |       97462       |     112249
        8  | 24:56.50 |  2:52.52 |      112250       |     125201
        9  | 27:49.27 |  3:20.60 |      125202       |     140261
       10  | 31:10.12 |  2:39.45 |      140262       |     152231
       11  | 33:49.57 |  3:09.70 |      152232       |     166476
       12  | 36:59.52 |  4:58.08 |      166477       |     188834
       13  | 41:57.60 |  4:46.62 |      188835       |     210346
       14  | 46:44.47 |  4:14.08 |      210347       |     229404
       15  | 50:58.55 |  3:35.62 |      229405       |     245591
       16  | 54:34.42 |  4:47.43 |      245592       |     267159
       17  | 59:22.10 |  3:13.12 |      267160       |     281646
       18  | 62:35.22 |  2:14.40 |      281647       |     291736
       19  | 64:49.62 |  4:20.63 |      291737       |     311299
       20  | 69:10.50 |  3:31.55 |      311300       |     327179
Nagranie  1
     Њcieїka pliku D:\00_FLAC_lossles_as_2009\Seweryn Krajewski - Gold - 1999 - PL - 2009 - AS4PB\01. Baw mnie.wav
     Poziom wysterowania 70.7 %
     Jakoњж nagrania 100.0 %
     CRC kopii     313136B3
     Kopia bezbікdna
Nagranie  2
     Њcieїka pliku D:\00_FLAC_lossles_as_2009\Seweryn Krajewski - Gold - 1999 - PL - 2009 - AS4PB\02. Wakacje w Amsterdamie.wav
     Poziom wysterowania 69.3 %
     Jakoњж nagrania 100.0 %
     CRC kopii     463D6312
     Kopia bezbікdna
Nagranie  3
     Њcieїka pliku D:\00_FLAC_lossles_as_2009\Seweryn Krajewski - Gold - 1999 - PL - 2009 - AS4PB\03. Czekasz na te jedna chwile.wav
     Poziom wysterowania 70.6 %
     Jakoњж nagrania 100.0 %
     CRC kopii     6B471C6A
     Kopia bezbікdna
Nagranie  4
     Њcieїka pliku D:\00_FLAC_lossles_as_2009\Seweryn Krajewski - Gold - 1999 - PL - 2009 - AS4PB\04. Najpiekniejsza.wav
     Poziom wysterowania 70.7 %
     Jakoњж nagrania 100.0 %
     CRC kopii     5992128B
     Kopia bezbікdna
Nagranie  5
     Њcieїka pliku D:\00_FLAC_lossles_as_2009\Seweryn Krajewski - Gold - 1999 - PL - 2009 - AS4PB\05. Uciekaj moje serce.wav
     Poziom wysterowania 89.0 %
     Jakoњж nagrania 100.0 %
     CRC kopii     F1D553E5
     Kopia bezbікdna
Nagranie  6
     Њcieїka pliku D:\00_FLAC_lossles_as_2009\Seweryn Krajewski - Gold - 1999 - PL - 2009 - AS4PB\06. Nie mowmy o zmartwieniach.wav
     Poziom wysterowania 70.7 %
     Jakoњж nagrania 100.0 %
     CRC kopii     465AA922
     Kopia bezbікdna
Nagranie  7
     Њcieїka pliku D:\00_FLAC_lossles_as_2009\Seweryn Krajewski - Gold - 1999 - PL - 2009 - AS4PB\07. Kiedy mnie juz nie bedzie.wav
     Poziom wysterowania 70.7 %
     Jakoњж nagrania 100.0 %
     CRC kopii     2EEFCFD5
     Kopia bezbікdna
Nagranie  8
     Њcieїka pliku D:\00_FLAC_lossles_as_2009\Seweryn Krajewski - Gold - 1999 - PL - 2009 - AS4PB\08. Zaufac snom.wav
     Poziom wysterowania 70.6 %
     Jakoњж nagrania 99.9 %
     CRC kopii     248FEE97
     Kopia bezbікdna
Nagranie  9
     Њcieїka pliku D:\00_FLAC_lossles_as_2009\Seweryn Krajewski - Gold - 1999 - PL - 2009 - AS4PB\09. Zielona lipka.wav
     Poziom wysterowania 70.7 %
     Jakoњж nagrania 100.0 %
     CRC kopii     2E20614C
     Kopia bezbікdna
Nagranie 10
     Њcieїka pliku D:\00_FLAC_lossles_as_2009\Seweryn Krajewski - Gold - 1999 - PL - 2009 - AS4PB\10. Co kazdy chlopiec wiedziec powinien.wav
     Poziom wysterowania 70.7 %
     Jakoњж nagrania 100.0 %
     CRC kopii     2F5AAABE
     Kopia bezbікdna
Nagranie 11
     Њcieїka pliku D:\00_FLAC_lossles_as_2009\Seweryn Krajewski - Gold - 1999 - PL - 2009 - AS4PB\11. Przemija uroda w nas.wav
     Poziom wysterowania 89.1 %
     Jakoњж nagrania 99.9 %
     CRC kopii     E959FF4D
     Kopia bezbікdna
Nagranie 12
     Њcieїka pliku D:\00_FLAC_lossles_as_2009\Seweryn Krajewski - Gold - 1999 - PL - 2009 - AS4PB\12. Ziemio blekitno - szara.wav
     Poziom wysterowania 70.7 %
     Jakoњж nagrania 100.0 %
     CRC kopii     BD9CC91C
     Kopia bezbікdna
Nagranie 13
     Њcieїka pliku D:\00_FLAC_lossles_as_2009\Seweryn Krajewski - Gold - 1999 - PL - 2009 - AS4PB\13. Wakacyjne fotografie.wav
     Poziom wysterowania 70.7 %
     Jakoњж nagrania 100.0 %
     CRC kopii     FD64CD72
     Kopia bezbікdna
Nagranie 14
     Њcieїka pliku D:\00_FLAC_lossles_as_2009\Seweryn Krajewski - Gold - 1999 - PL - 2009 - AS4PB\14. Nie jestes sama.wav
     Poziom wysterowania 99.9 %
     Jakoњж nagrania 100.0 %
     CRC kopii     25F2EF66
     Kopia bezbікdna
Nagranie 15
     Њcieїka pliku D:\00_FLAC_lossles_as_2009\Seweryn Krajewski - Gold - 1999 - PL - 2009 - AS4PB\15. Te nasze jesienie.wav
     Poziom wysterowania 84.0 %
     Jakoњж nagrania 99.9 %
     CRC kopii     A508D962
     Kopia bezbікdna
Nagranie 16
     Њcieїka pliku D:\00_FLAC_lossles_as_2009\Seweryn Krajewski - Gold - 1999 - PL - 2009 - AS4PB\16. Golebi song.wav
     Poziom wysterowania 70.6 %
     Jakoњж nagrania 99.9 %
     CRC kopii     F2B4BE39
     Kopia bezbікdna
Nagranie 17
     Њcieїka pliku D:\00_FLAC_lossles_as_2009\Seweryn Krajewski - Gold - 1999 - PL - 2009 - AS4PB\17. Pod niebami.wav
     Poziom wysterowania 70.7 %
     Jakoњж nagrania 100.0 %
     CRC kopii     7D6A18C5
     Kopia bezbікdna
Nagranie 18
     Њcieїka pliku D:\00_FLAC_lossles_as_2009\Seweryn Krajewski - Gold - 1999 - PL - 2009 - AS4PB\18. Tam gdzie kochaja nas.wav
     Poziom wysterowania 89.1 %
     Jakoњж nagrania 100.0 %
     CRC kopii     56649AA7
     Kopia bezbікdna
Nagranie 19
     Њcieїka pliku D:\00_FLAC_lossles_as_2009\Seweryn Krajewski - Gold - 1999 - PL - 2009 - AS4PB\19. Pijmy wino za kolegow.wav
     Poziom wysterowania 50.1 %
     Jakoњж nagrania 100.0 %
     CRC kopii     FF31FF31
     Kopia bezbікdna
Nagranie 20
     Њcieїka pliku D:\00_FLAC_lossles_as_2009\Seweryn Krajewski - Gold - 1999 - PL - 2009 - AS4PB\20. Polskie zycie.wav
     Poziom wysterowania 79.4 %
     Jakoњж nagrania 99.9 %
     CRC kopii     F7C1BB3F
     Kopia bezbікdna
Nie byіo bікdуw
Koniec raportu
Правила, инструкции, FAQ!!!
Торрент  Добавлен [26 мар 2019, 19:53] Скачать торрент Магнет ссылка
Скачать торрент
[ Размер 18.24 КБ / Просмотров 8 ]

Статус
Проверен 
 
Размер  411.99 МБ
Приватный: Нет (DHT включён)
.torrent скачан  2
 


     Отправить личное сообщение
   
Страница 1 из 1
Показать сообщения за:  Поле сортировки  
Начать новую тему Ответить на тему


Сейчас этот форум просматривают: нет зарегистрированных пользователей и гости: 0


Вы не можете начинать темы
Вы не можете отвечать на сообщения
Вы не можете редактировать свои сообщения
Вы не можете удалять свои сообщения
Вы не можете добавлять вложения

Перейти:  
cron