Начать новую тему Ответить на тему
Статистика раздачи
Размер: 675.15 МБ | Добавлен: 26 мар 2019, 20:39 | Скачали: 0
Сидеров: 3  [0 байт/сек]    Личеров: 1  [0 байт/сек]
Пред. тема | След. тема 

Автор
Сообщение

СообщениеДобавлено: 26 мар 2019, 20:39 

Ответить с цитатой 

Roxette - Joyride Don't Bore Us - Get To The Chorus
Жанр: Soft-Rock
Год выпуска диска: 1991
Производитель диска: Svenska (EMI Svenska AB.)
Аудио кодек: FLAC
Тип рипа: image+.cue
Битрейт аудио: lossless
Продолжительность: 59:03
Трэклист:
1. Joyride (4:24)
2. Hotblooded (3:18)
3. Fading Like A Flower (Every Time You Leave) (3:52)
4. Knockin' On Every Door (3:56)
5. Spending My Time (4:36)
6. I Remeber You (3:54)
7. Watercolours In The Rain (3:40)
8. The Big L. (4:26)
9. Soul Deep (3:34)
10. (Do You Get) Excited? (4:16)
11. Church Of Your Heart (3:16)
12. Small Talk (3:53)
13. Physical Fascination (3:27)
14. Things Will Never Be The Same (4:26)
15. Perfect Day (4:05)
Доп. информация: Полный буклет с текстами песен прилагается!
Exact Audio Copy V0.99 prebeta 5 from 4. May 2009
Отчёт EAC об извлечении, выполненном 7. сентября 2009, 21:14
Roxette / Joyride
Дисковод: PIONEER DVD-RW DVR-111D Adapter: 3 ID: 0
Режим чтения : Достоверность
Использование точного потока : Да
Отключение кэша аудио : Да
Использование указателей C2 : Нет
Коррекция смещения при чтении : 48
Способность читать области Lead-in и Lead-out : Нет
Заполнение пропущенных сэмплов тишиной : Да
Удаление блоков с тишиной в начале и конце : Нет
При вычислениях CRC использовались нулевые сэмплы : Да
Интерфейс : Установленный внешний ASPI-интерфейс
Выходной формат : Внутренние WAV-операции
Формат сэмплов : 44.100 Гц; 16 бит; стерео
TOC извлечённого CD
Трек | Старт | Длительность | Начальный сектор | Конечный сектор
---------------------------------------------------------------------
1 | 0:00.33 | 4:24.10 | 33 | 19842
2 | 4:24.43 | 3:18.20 | 19843 | 34712
3 | 7:42.63 | 3:52.45 | 34713 | 52157
4 | 11:35.33 | 3:56.20 | 52158 | 69877
5 | 15:31.53 | 4:36.07 | 69878 | 90584
6 | 20:07.60 | 3:54.13 | 90585 | 108147
7 | 24:01.73 | 3:40.47 | 108148 | 124694
8 | 27:42.45 | 4:26.20 | 124695 | 144664
9 | 32:08.65 | 3:34.68 | 144665 | 160782
10 | 35:43.58 | 4:16.50 | 160783 | 180032
11 | 40:00.33 | 3:16.30 | 180033 | 194762
12 | 43:16.63 | 3:53.52 | 194763 | 212289
13 | 47:10.40 | 3:27.58 | 212290 | 227872
14 | 50:38.23 | 4:26.15 | 227873 | 247837
15 | 55:04.38 | 4:05.10 | 247838 | 266222
Характеристики диапазона извлечения и сообщения об ошибках
Выбранный диапазон
Имя файла D:\Документы\Документы Семья\Моя музыка\Roxette\Roxette - Joyride.wav
Пиковый уровень 100.0 %
Качество диапазона 100.0 %
CRC копии 4A6CBCF5
Копирование... OK
Ошибок не произошло
AccurateRip: сводка
Трек 1 точное извлечение (доверие 167) [2FB05679]
Трек 2 точное извлечение (доверие 166) [C0C1CA69]
Трек 3 точное извлечение (доверие 166) [98003AB9]
Трек 4 точное извлечение (доверие 165) [13857F1E]
Трек 5 точное извлечение (доверие 164) [CA65BB27]
Трек 6 точное извлечение (доверие 163) [FB549E3A]
Трек 7 точное извлечение (доверие 166) [C6E8AAF3]
Трек 8 точное извлечение (доверие 164) [1FD65583]
Трек 9 точное извлечение (доверие 163) [ABF6A4B5]
Трек 10 точное извлечение (доверие 164) [E4A57604]
Трек 11 точное извлечение (доверие 164) [EEEA5A19]
Трек 12 точное извлечение (доверие 164) [BF22A3E1]
Трек 13 точное извлечение (доверие 162) [C919A34E]
Трек 14 точное извлечение (доверие 162) [29283E34]
Трек 15 точное извлечение (доверие 159) [4A1A853D]
Все треки извлечены точно
Конец отчёта
AUDIOCHECKER v2.0 beta (build 457) - by Dester - opdester@freemail.hu
~~~~~~~~~~~~~~~~~~~~~~~~~~~~~~~~~~
Начато: пятница, 25. 09. 2009. - 0:04.25
Найдено файлов: 15
01 -===- трек 1 в приводе PIONEER DVD-RW DVR-111D
Трек успешно извлечён
Заключение: этот трек - CDDA с вероятностью 100%
Временный файл удалён.
02 -===- трек 2 в приводе PIONEER DVD-RW DVR-111D
Трек успешно извлечён
Заключение: этот трек - CDDA с вероятностью 100%
Временный файл удалён.
03 -===- трек 3 в приводе PIONEER DVD-RW DVR-111D
Трек успешно извлечён
Заключение: этот трек - CDDA с вероятностью 100%
Временный файл удалён.
04 -===- трек 4 в приводе PIONEER DVD-RW DVR-111D
Трек успешно извлечён
Заключение: этот трек - CDDA с вероятностью 100%
Временный файл удалён.
05 -===- трек 5 в приводе PIONEER DVD-RW DVR-111D
Трек успешно извлечён
Заключение: этот трек - CDDA с вероятностью 100%
Временный файл удалён.
06 -===- трек 6 в приводе PIONEER DVD-RW DVR-111D
Трек успешно извлечён
Заключение: этот трек - CDDA с вероятностью 100%
Временный файл удалён.
07 -===- трек 7 в приводе PIONEER DVD-RW DVR-111D
Трек успешно извлечён
Заключение: этот трек - CDDA с вероятностью 100%
Временный файл удалён.
08 -===- трек 8 в приводе PIONEER DVD-RW DVR-111D
Трек успешно извлечён
Заключение: этот трек - CDDA с вероятностью 100%
Временный файл удалён.
09 -===- трек 9 в приводе PIONEER DVD-RW DVR-111D
Трек успешно извлечён
Заключение: этот трек - CDDA с вероятностью 100%
Временный файл удалён.
10 -===- трек 10 в приводе PIONEER DVD-RW DVR-111D
Трек успешно извлечён
Заключение: этот трек - CDDA с вероятностью 100%
Временный файл удалён.
11 -===- трек 11 в приводе PIONEER DVD-RW DVR-111D
Трек успешно извлечён
Заключение: этот трек - CDDA с вероятностью 100%
Временный файл удалён.
12 -===- трек 12 в приводе PIONEER DVD-RW DVR-111D
Трек успешно извлечён
Заключение: этот трек - CDDA с вероятностью 100%
Временный файл удалён.
13 -===- трек 13 в приводе PIONEER DVD-RW DVR-111D
Трек успешно извлечён
Заключение: этот трек - CDDA с вероятностью 100%
Временный файл удалён.
14 -===- трек 14 в приводе PIONEER DVD-RW DVR-111D
Трек успешно извлечён
Заключение: этот трек - CDDA с вероятностью 99%
Временный файл удалён.
15 -===- трек 15 в приводе PIONEER DVD-RW DVR-111D
Трек успешно извлечён
Заключение: этот трек - CDDA с вероятностью 100%
Временный файл удалён.
Завершено: пятница, 25. 09. 2009. - 0:51.10 (Время операции: 0:46.44)
1. 15 треков альбома
2. 15-ти страничный буклет, который включает в себя фотографии и тексты песен.
3. Аккорды для гитары на некоторые песни "Roxette" (простите, что закинул всё в кучу)
3. Файл "Roxette - Joyride.cue"
4. Файл отчёта
Правила, инструкции, FAQ!!!
Торрент  Добавлен [26 мар 2019, 20:39] Скачать торрент Магнет ссылка
Скачать торрент
[ Размер 15.82 КБ / Просмотров 2 ]

Статус
Проверен 
 
Размер  675.15 МБ
Приватный: Нет (DHT включён)
.torrent скачан  0
 


     Отправить личное сообщение
   
Страница 1 из 1
Показать сообщения за:  Поле сортировки  
Начать новую тему Ответить на тему


Сейчас этот форум просматривают: нет зарегистрированных пользователей и гости: 0


Вы не можете начинать темы
Вы не можете отвечать на сообщения
Вы не можете редактировать свои сообщения
Вы не можете удалять свои сообщения
Вы не можете добавлять вложения

Перейти:  
cron