Начать новую тему Ответить на тему
Статистика раздачи
Размер: 692 МБ | Добавлен: 26 мар 2019, 20:08 | Скачали: 0
Сидеров: 0  [0 байт/сек]    Личеров: 0  [0 байт/сек]
Пред. тема | След. тема 

Автор
Сообщение

СообщениеДобавлено: 26 мар 2019, 20:08 

Ответить с цитатой 

RED 7 / Collection
Жанр: Soft Rock, Pop Rock
Издатель (лейбл): Renaissance Records, MCA Records
Страна исполнителя: US
Аудиокодек: FLAC (*.flac)
Тип рипа: tracks+.cue
Битрейт: lossless
Продолжительность: 41:18 + 41:59
Источник: Собственные рипы дисковНаличие сканов в содержимом раздачи: Да (600dpi,.Jpeg)
Red 7 / Red 7 [# RMED-186]
Жанр: Soft Rock, Pop Rock
Страна исполнителя: US
Страна-производитель диска: US
Дата выхода альбома: ©1985
Дата выпуска CD: ®2009
Издатель (лейбл): Renaissance Records
Каталожный номер: # RMED-186
Matrix / Runout: OAS78<2327>RAICD-186
Формат издания: CD, Album, Reissue
Тип рипа: FLAC (tracks+.cue)
Битрейт: lossless
Продолжительность: 41:18
Источник: Собственный рип диска
Наличие сканов в содержимом раздачи: Да (600dpi, .Jpeg)


01. Relentless [3:58]
02. Heartbeat [4:17]
03. No Sorry [3:24]
04. Less Than Perfect [4:12]
05. The Way [5:09]
06. This Dark Hour [4:37]
07. Questions And Answers [4:09]
08. Let Me Use You [3:35]
09. Shades Of Grey [4:12]
10. Can't Much Anymore [5:02]
Код:
Exact Audio Copy V1.1 from 23. June 2015
EAC extraction logfile from 9. April 2017, 11:48
RED 7 / RED 7
Used drive  : TSSTcorpCDDVDW SH-S202H   Adapter: 1  ID: 0
Read mode               : Secure
Utilize accurate stream : Yes
Defeat audio cache      : Yes
Make use of C2 pointers : No
Read offset correction                      : 6
Overread into Lead-In and Lead-Out          : No
Fill up missing offset samples with silence : Yes
Delete leading and trailing silent blocks   : No
Null samples used in CRC calculations       : Yes
Used interface                              : Native Win32 interface for Win NT & 2000
Gap handling                                : Appended to previous track
Used output format              : User Defined Encoder
Selected bitrate                : 768 kBit/s
Quality                         : High
Add ID3 tag                     : No
Command line compressor         : C:\Program Files\Exact Audio Copy\FLAC\FLAC.EXE
Additional command line options : -V -6 -T "COMMENT=ripped by shteeren" -T "ARTIST=%artist%" -T "TITLE=%title%" -T "ALBUM=%albumtitle%" -T "DATE=%year%" -T "TRACKNUMBER=%tracknr%" -T "GENRE=%genre%" -T "ALBUMARTIST=%albuminterpret%" -T "TOTALTRACKS=%numtracks%" %hascover%--picture="%coverfile%"%hascover% %source% -o %dest%
TOC of the extracted CD
     Track |   Start  |  Length  | Start sector | End sector
    ---------------------------------------------------------
        1  |  0:00.00 |  3:49.48 |         0    |    17222
        2  |  3:49.48 |  4:11.48 |     17223    |    36095
        3  |  8:01.21 |  3:17.48 |     36096    |    50918
        4  | 11:18.69 |  3:44.48 |     50919    |    67766
        5  | 15:03.42 |  4:58.48 |     67767    |    90164
        6  | 20:02.15 |  4:34.48 |     90165    |   110762
        7  | 24:36.63 |  4:05.48 |    110763    |   129185
        8  | 28:42.36 |  3:31.48 |    129186    |   145058
        9  | 32:14.09 |  4:06.48 |    145059    |   163556
       10  | 36:20.57 |  4:57.48 |    163557    |   185879
Track  1
     Filename K:\shteeren\RED 7\1985 - Red 7\01 Relentless.wav
     Pre-gap length  0:00:02.00
     Peak level 94.4 %
     Extraction speed 1.6 X
     Track quality 100.0 %
     Test CRC B290D634
     Copy CRC B290D634
     Accurately ripped (confidence 5)  [B7E3F7BC]  (AR v2)
     Copy OK
Track  2
     Filename K:\shteeren\RED 7\1985 - Red 7\02 Heartbeat.wav
     Peak level 94.4 %
     Extraction speed 1.7 X
     Track quality 99.9 %
     Test CRC C4F054BE
     Copy CRC C4F054BE
     Accurately ripped (confidence 5)  [FA7703EF]  (AR v2)
     Copy OK
Track  3
     Filename K:\shteeren\RED 7\1985 - Red 7\03 No Sorry.wav
     Peak level 94.4 %
     Extraction speed 2.0 X
     Track quality 100.0 %
     Test CRC B955B7E6
     Copy CRC B955B7E6
     Accurately ripped (confidence 5)  [5C0803A5]  (AR v2)
     Copy OK
Track  4
     Filename K:\shteeren\RED 7\1985 - Red 7\04 Less Than Perfect.wav
     Peak level 94.4 %
     Extraction speed 2.1 X
     Track quality 100.0 %
     Test CRC E53F3D66
     Copy CRC E53F3D66
     Accurately ripped (confidence 6)  [A233FDEF]  (AR v2)
     Copy OK
Track  5
     Filename K:\shteeren\RED 7\1985 - Red 7\05 The Way.wav
     Peak level 94.4 %
     Extraction speed 2.4 X
     Track quality 100.0 %
     Test CRC 6472E9E1
     Copy CRC 6472E9E1
     Accurately ripped (confidence 6)  [0189603B]  (AR v2)
     Copy OK
Track  6
     Filename K:\shteeren\RED 7\1985 - Red 7\06 This Dark Hour.wav
     Peak level 94.4 %
     Extraction speed 2.5 X
     Track quality 100.0 %
     Test CRC D0A551DA
     Copy CRC D0A551DA
     Accurately ripped (confidence 6)  [16DD05B3]  (AR v2)
     Copy OK
Track  7
     Filename K:\shteeren\RED 7\1985 - Red 7\07 Questions And Answers.wav
     Peak level 94.4 %
     Extraction speed 2.6 X
     Track quality 100.0 %
     Test CRC 33673CA0
     Copy CRC 33673CA0
     Accurately ripped (confidence 6)  [6EF6EDA3]  (AR v2)
     Copy OK
Track  8
     Filename K:\shteeren\RED 7\1985 - Red 7\08 Let Me Use You.wav
     Peak level 94.4 %
     Extraction speed 2.7 X
     Track quality 100.0 %
     Test CRC C800406B
     Copy CRC C800406B
     Accurately ripped (confidence 6)  [B53CD919]  (AR v2)
     Copy OK
Track  9
     Filename K:\shteeren\RED 7\1985 - Red 7\09 Shades Of Grey.wav
     Peak level 94.4 %
     Extraction speed 2.3 X
     Track quality 99.9 %
     Test CRC FE663416
     Copy CRC FE663416
     Accurately ripped (confidence 6)  [5B697C40]  (AR v2)
     Copy OK
Track 10
     Filename K:\shteeren\RED 7\1985 - Red 7\10 Can't Much Anymore.wav
     Peak level 94.4 %
     Extraction speed 3.0 X
     Track quality 100.0 %
     Test CRC BAC88EAC
     Copy CRC BAC88EAC
     Accurately ripped (confidence 5)  [5AA6256B]  (AR v2)
     Copy OK
All tracks accurately ripped
No errors occurred
End of status report
---- CUETools DB Plugin V2.1.6
[CTDB TOCID: 8AX.8IeIwIMeinujwQ8AgPVRTI0-] found
Submit result: 8AX.8IeIwIMeinujwQ8AgPVRTI0- has been confirmed
Track | CTDB Status
  1   | (1/1) Accurately ripped
  2   | (1/1) Accurately ripped
  3   | (1/1) Accurately ripped
  4   | (1/1) Accurately ripped
  5   | (1/1) Accurately ripped
  6   | (1/1) Accurately ripped
  7   | (1/1) Accurately ripped
  8   | (1/1) Accurately ripped
  9   | (1/1) Accurately ripped
 10   | (1/1) Accurately ripped
==== Log checksum 7F5F25777CC5E147192303D285B8C89AE8A7F6969041C424D31C0C694EF70E8E ====
Код:
REM GENRE "Pop - Rock"
REM DATE 2009
REM DISCID 7C09AE0A
REM COMMENT "ExactAudioCopy v1.1"
PERFORMER "RED 7"
TITLE "RED 7"
FILE "01 Relentless.wav" WAVE
  TRACK 01 AUDIO
    TITLE "Relentless"
    PERFORMER "RED 7"
    INDEX 01 00:00:00
FILE "02 Heartbeat.wav" WAVE
  TRACK 02 AUDIO
    TITLE "Heartbeat"
    PERFORMER "RED 7"
    INDEX 01 00:00:00
FILE "03 No Sorry.wav" WAVE
  TRACK 03 AUDIO
    TITLE "No Sorry"
    PERFORMER "RED 7"
    INDEX 01 00:00:00
FILE "04 Less Than Perfect.wav" WAVE
  TRACK 04 AUDIO
    TITLE "Less Than Perfect"
    PERFORMER "RED 7"
    INDEX 01 00:00:00
FILE "05 The Way.wav" WAVE
  TRACK 05 AUDIO
    TITLE "The Way"
    PERFORMER "RED 7"
    INDEX 01 00:00:00
FILE "06 This Dark Hour.wav" WAVE
  TRACK 06 AUDIO
    TITLE "This Dark Hour"
    PERFORMER "RED 7"
    INDEX 01 00:00:00
FILE "07 Questions And Answers.wav" WAVE
  TRACK 07 AUDIO
    TITLE "Questions And Answers"
    PERFORMER "RED 7"
    INDEX 01 00:00:00
FILE "08 Let Me Use You.wav" WAVE
  TRACK 08 AUDIO
    TITLE "Let Me Use You"
    PERFORMER "RED 7"
    INDEX 01 00:00:00
FILE "09 Shades Of Grey.wav" WAVE
  TRACK 09 AUDIO
    TITLE "Shades Of Grey"
    PERFORMER "RED 7"
    INDEX 01 00:00:00
FILE "10 Can't Much Anymore.wav" WAVE
  TRACK 10 AUDIO
    TITLE "Can't Much Anymore"
    PERFORMER "RED 7"
    INDEX 01 00:00:00
Mike Rutherford - Bass, Guitar
Paul Revelli - Drums, Backing Vocals
Gene Stashuk - Guitar, Lead Vocals
Michael Becker - Keyboards, Backing Vocals
Producer – Mike Rutherford
Red 7 / When The Sun Goes Down [# MCAD-5792]
#777Жанр: Soft Rock, Pop Rock
Страна исполнителя: US
Страна-производитель диска: US
Дата выхода альбома: ©1987
Дата выпуска CD: ®1987
Издатель (лейбл): MCA Records
Каталожный номер: # MCAD-5792
Matrix / Runout: MCAD-5792-V1E22
Формат издания: CD, Album
Тип рипа: FLAC (tracks+.cue)
Битрейт: lossless
Продолжительность:41:59
Источник: Собственный рип диска
Наличие сканов в содержимом раздачи: Да (600dpi, .Jpeg)


01. Big Boys (Talk Tuff) [3:27]
02. Condition Red [4:34]
03. When The Sun Goes Down [3:55]
04. I'm On Your Side [3:38]
05. Inspiration [3:49]
06. Hearts In Flames [4:42]
07. Say You Will [4:27]
08. True Confessions [3:42]
09. Rise And The Fall [4:11]
10. Under The Water [5:06]
Код:
Exact Audio Copy V1.1 from 23. June 2015
EAC extraction logfile from 9. April 2017, 13:47
RED 7 / When The Sun Goes Down
Used drive  : TSSTcorpCDDVDW SH-S202H   Adapter: 1  ID: 0
Read mode               : Secure
Utilize accurate stream : Yes
Defeat audio cache      : Yes
Make use of C2 pointers : No
Read offset correction                      : 6
Overread into Lead-In and Lead-Out          : No
Fill up missing offset samples with silence : Yes
Delete leading and trailing silent blocks   : No
Null samples used in CRC calculations       : Yes
Used interface                              : Native Win32 interface for Win NT & 2000
Gap handling                                : Appended to previous track
Used output format              : User Defined Encoder
Selected bitrate                : 768 kBit/s
Quality                         : High
Add ID3 tag                     : No
Command line compressor         : C:\Program Files\Exact Audio Copy\FLAC\FLAC.EXE
Additional command line options : -V -6 -T "COMMENT=ripped by shteeren" -T "ARTIST=%artist%" -T "TITLE=%title%" -T "ALBUM=%albumtitle%" -T "DATE=%year%" -T "TRACKNUMBER=%tracknr%" -T "GENRE=%genre%" -T "ALBUMARTIST=%albuminterpret%" -T "TOTALTRACKS=%numtracks%" %hascover%--picture="%coverfile%"%hascover% %source% -o %dest%
TOC of the extracted CD
     Track |   Start  |  Length  | Start sector | End sector
    ---------------------------------------------------------
        1  |  0:00.37 |  3:31.25 |        37    |    15886
        2  |  3:31.62 |  4:36.40 |     15887    |    36626
        3  |  8:08.27 |  3:58.53 |     36627    |    54529
        4  | 12:07.05 |  3:39.50 |     54530    |    71004
        5  | 15:46.55 |  3:51.35 |     71005    |    88364
        6  | 19:38.15 |  4:45.15 |     88365    |   109754
        7  | 24:23.30 |  4:30.30 |    109755    |   130034
        8  | 28:53.60 |  3:42.67 |    130035    |   146751
        9  | 32:36.52 |  4:13.13 |    146752    |   165739
       10  | 36:49.65 |  5:10.07 |    165740    |   188996
Track  1
     Filename K:\shteeren\RED 7\1987 - When The Sun Goes Down\01 Big Boys (Talk Tuff).wav
     Pre-gap length  0:00:02.37
     Peak level 100.0 %
     Extraction speed 1.8 X
     Track quality 100.0 %
     Test CRC 9B784B8B
     Copy CRC 9B784B8B
     Accurately ripped (confidence 4)  [1C7D7083]  (AR v2)
     Copy OK
Track  2
     Filename K:\shteeren\RED 7\1987 - When The Sun Goes Down\02 Condition Red.wav
     Pre-gap length  0:00:00.57
     Peak level 100.0 %
     Extraction speed 1.9 X
     Track quality 99.9 %
     Test CRC AC67CEC8
     Copy CRC AC67CEC8
     Accurately ripped (confidence 4)  [D3E74AFF]  (AR v2)
     Copy OK
Track  3
     Filename K:\shteeren\RED 7\1987 - When The Sun Goes Down\03 When The Sun Goes Down.wav
     Pre-gap length  0:00:01.47
     Peak level 89.1 %
     Extraction speed 1.9 X
     Track quality 99.9 %
     Test CRC 3B0CF408
     Copy CRC 3B0CF408
     Accurately ripped (confidence 4)  [6EF770D5]  (AR v2)
     Copy OK
Track  4
     Filename K:\shteeren\RED 7\1987 - When The Sun Goes Down\04 I'm On Your Side.wav
     Pre-gap length  0:00:00.13
     Peak level 85.8 %
     Extraction speed 2.4 X
     Track quality 100.0 %
     Test CRC DC2BB957
     Copy CRC DC2BB957
     Accurately ripped (confidence 4)  [29276E2F]  (AR v2)
     Copy OK
Track  5
     Filename K:\shteeren\RED 7\1987 - When The Sun Goes Down\05 Inspiration.wav
     Pre-gap length  0:00:00.40
     Peak level 83.1 %
     Extraction speed 2.5 X
     Track quality 100.0 %
     Test CRC B0C29682
     Copy CRC B0C29682
     Accurately ripped (confidence 4)  [30CFFEE8]  (AR v2)
     Copy OK
Track  6
     Filename K:\shteeren\RED 7\1987 - When The Sun Goes Down\06 Heart In Flames.wav
     Pre-gap length  0:00:01.13
     Peak level 100.0 %
     Extraction speed 2.3 X
     Track quality 99.9 %
     Test CRC E7737CBF
     Copy CRC E7737CBF
     Accurately ripped (confidence 4)  [1C0B2AB7]  (AR v2)
     Copy OK
Track  7
     Filename K:\shteeren\RED 7\1987 - When The Sun Goes Down\07 Say You Will.wav
     Pre-gap length  0:00:00.53
     Peak level 94.7 %
     Extraction speed 2.9 X
     Track quality 100.0 %
     Test CRC A56AFC02
     Copy CRC A56AFC02
     Accurately ripped (confidence 4)  [1275F4B3]  (AR v2)
     Copy OK
Track  8
     Filename K:\shteeren\RED 7\1987 - When The Sun Goes Down\08 True Confessions.wav
     Pre-gap length  0:00:01.05
     Peak level 87.3 %
     Extraction speed 2.9 X
     Track quality 100.0 %
     Test CRC 30A4F00F
     Copy CRC 30A4F00F
     Accurately ripped (confidence 4)  [A44F5314]  (AR v2)
     Copy OK
Track  9
     Filename K:\shteeren\RED 7\1987 - When The Sun Goes Down\09 Rise And The Fall.wav
     Pre-gap length  0:00:01.50
     Peak level 100.0 %
     Extraction speed 3.1 X
     Track quality 100.0 %
     Test CRC F2F23BC8
     Copy CRC F2F23BC8
     Accurately ripped (confidence 4)  [F9A9544B]  (AR v2)
     Copy OK
Track 10
     Filename K:\shteeren\RED 7\1987 - When The Sun Goes Down\10 Under The Water.wav
     Pre-gap length  0:00:01.17
     Peak level 87.8 %
     Extraction speed 2.7 X
     Track quality 99.9 %
     Test CRC 255D9AF9
     Copy CRC 255D9AF9
     Accurately ripped (confidence 4)  [E652ED8D]  (AR v2)
     Copy OK
All tracks accurately ripped
No errors occurred
End of status report
---- CUETools DB Plugin V2.1.6
[CTDB TOCID: lroN5BTD66hATMgPUNYHuF0JKvk-] found
Submit result: already submitted
Track | CTDB Status
  1   | (3/3) Accurately ripped
  2   | (3/3) Accurately ripped
  3   | (3/3) Accurately ripped
  4   | (3/3) Accurately ripped
  5   | (3/3) Accurately ripped
  6   | (3/3) Accurately ripped
  7   | (3/3) Accurately ripped
  8   | (3/3) Accurately ripped
  9   | (3/3) Accurately ripped
 10   | (3/3) Accurately ripped
==== Log checksum 55AD00ACC6FF003C6C5F15E8D4F831C62C9C1CCBF91FB685DDBFD771BCFBB6F2 ====
Код:
REM GENRE Pop-Rock
REM DATE 1987
REM DISCID 8309D70A
REM COMMENT "ExactAudioCopy v1.1"
CATALOG 0000000000000
PERFORMER "RED 7"
TITLE "When The Sun Goes Down"
FILE "01 Big Boys (Talk Tuff).wav" WAVE
  TRACK 01 AUDIO
    TITLE "Big Boys (Talk Tuff)"
    PERFORMER "RED 7"
    PREGAP 00:00:37
    INDEX 01 00:00:00
  TRACK 02 AUDIO
    TITLE "Condition Red"
    PERFORMER "RED 7"
    INDEX 00 03:30:43
FILE "02 Condition Red.wav" WAVE
    INDEX 01 00:00:00
  TRACK 03 AUDIO
    TITLE "When The Sun Goes Down"
    PERFORMER "RED 7"
    INDEX 00 04:34:68
FILE "03 When The Sun Goes Down.wav" WAVE
    INDEX 01 00:00:00
  TRACK 04 AUDIO
    TITLE "I'm On Your Side"
    PERFORMER "RED 7"
    INDEX 00 03:58:40
FILE "04 I'm On Your Side.wav" WAVE
    INDEX 01 00:00:00
  TRACK 05 AUDIO
    TITLE "Inspiration"
    PERFORMER "RED 7"
    INDEX 00 03:39:10
FILE "05 Inspiration.wav" WAVE
    INDEX 01 00:00:00
  TRACK 06 AUDIO
    TITLE "Heart In Flames"
    PERFORMER "RED 7"
    INDEX 00 03:50:22
FILE "06 Heart In Flames.wav" WAVE
    INDEX 01 00:00:00
  TRACK 07 AUDIO
    TITLE "Say You Will"
    PERFORMER "RED 7"
    INDEX 00 04:44:37
FILE "07 Say You Will.wav" WAVE
    INDEX 01 00:00:00
  TRACK 08 AUDIO
    TITLE "True Confessions"
    PERFORMER "RED 7"
    INDEX 00 04:29:25
FILE "08 True Confessions.wav" WAVE
    INDEX 01 00:00:00
  TRACK 09 AUDIO
    TITLE "Rise And The Fall"
    PERFORMER "RED 7"
    INDEX 00 03:41:17
FILE "09 Rise And The Fall.wav" WAVE
    INDEX 01 00:00:00
  TRACK 10 AUDIO
    TITLE "Under The Water"
    PERFORMER "RED 7"
    INDEX 00 04:11:71
FILE "10 Under The Water.wav" WAVE
    INDEX 01 00:00:00
Paul Revelli - Drums, Backing Vocals
Gene Stashuk - Guitar, Lead Vocals
Michael Becker - Keyboards, Backing Vocals
Producer – Richie Zito
Правила, инструкции, FAQ!!!
Торрент  Добавлен [26 мар 2019, 20:08] Скачать торрент Магнет ссылка
Скачать торрент
[ Размер 17.11 КБ / Просмотров 1 ]

Статус
Проверен 
 
Размер  692 МБ
Приватный: Нет (DHT включён)
.torrent скачан  0
 


     Отправить личное сообщение
   
Страница 1 из 1
Показать сообщения за:  Поле сортировки  
Начать новую тему Ответить на тему


Сейчас этот форум просматривают: нет зарегистрированных пользователей и гости: 0


Вы не можете начинать темы
Вы не можете отвечать на сообщения
Вы не можете редактировать свои сообщения
Вы не можете удалять свои сообщения
Вы не можете добавлять вложения

Перейти:  
cron