Начать новую тему Ответить на тему
Статистика раздачи
Размер: 304.71 МБ | Добавлен: 26 мар 2019, 20:48 | Скачали: 0
Сидеров: 2  [0 байт/сек]    Личеров: 11  [0 байт/сек]
Пред. тема | След. тема 

Автор
Сообщение

СообщениеДобавлено: 26 мар 2019, 20:48 

Ответить с цитатой 

The Virgineers - The Virgineers
Жанр: Pop Rock, Soft Rock, Power Pop
Носитель: WEB
Страна-производитель диска (релиза): USA
Год издания: 1999
Издатель (лейбл): Liquid Sound Records
Номер по каталогу: LSR-2634
Страна исполнителя (группы): USA (New Zealand ?)
Аудиокодек: FLAC (*.flac)
Тип рипа: tracks
Битрейт аудио: lossless
Продолжительность: 00:45:56
Источник (релизер): https://thevirgineers.bandcamp.com/album/the-virgineers
Наличие сканов в содержимом раздачи: нет
Треклист:
01. Love Circus
02. Places That I´ve Never Been
03. Sun
04. Floating
05. Plasticman
06. How Far Does Space Go?
07. The Morning Moon
08. Dr. Glouster
09. Be My Guru
10. Lost Ballon
11. Diesel Train
Код:
AUDIOCHECKER v2.0 beta (build 457) - by Dester - opdester@freemail.hu
-----------------------------------------------------------
Начато: вторник, 04. 04. 2017. - 8:47.47
Найдено файлов: 11
01 -===- E:\Torrents\The Virgineers - 1999\the Virgineers - the Virgineers - 01 Love Circus.flac
  Извлечение успешно выполнено
  Заключение: этот трек - CDDA с вероятностью 100%
  Временный файл удалён.
02 -===- E:\Torrents\The Virgineers - 1999\the Virgineers - the Virgineers - 02 Places That I've Never Been.flac
  Извлечение успешно выполнено
  Заключение: этот трек - CDDA с вероятностью 100%
  Временный файл удалён.
03 -===- E:\Torrents\The Virgineers - 1999\the Virgineers - the Virgineers - 03 Sun.flac
  Извлечение успешно выполнено
  Заключение: этот трек - CDDA с вероятностью 100%
  Временный файл удалён.
04 -===- E:\Torrents\The Virgineers - 1999\the Virgineers - the Virgineers - 04 Floating.flac
  Извлечение успешно выполнено
  Заключение: этот трек - CDDA с вероятностью 99%
  Временный файл удалён.
05 -===- E:\Torrents\The Virgineers - 1999\the Virgineers - the Virgineers - 05 Plasticman.flac
  Извлечение успешно выполнено
  Заключение: этот трек - CDDA с вероятностью 100%
  Временный файл удалён.
06 -===- E:\Torrents\The Virgineers - 1999\the Virgineers - the Virgineers - 06 How Far Does Space Go-.flac
  Извлечение успешно выполнено
  Заключение: этот трек - CDDA с вероятностью 99%
  Временный файл удалён.
07 -===- E:\Torrents\The Virgineers - 1999\the Virgineers - the Virgineers - 07 The Morning Moon.flac
  Извлечение успешно выполнено
  Заключение: этот трек - CDDA с вероятностью 100%
  Временный файл удалён.
08 -===- E:\Torrents\The Virgineers - 1999\the Virgineers - the Virgineers - 08 Dr. Glouster.flac
  Извлечение успешно выполнено
  Заключение: этот трек - CDDA с вероятностью 100%
  Временный файл удалён.
09 -===- E:\Torrents\The Virgineers - 1999\the Virgineers - the Virgineers - 09 Be My Guru.flac
  Извлечение успешно выполнено
  Заключение: этот трек - CDDA с вероятностью 100%
  Временный файл удалён.
10 -===- E:\Torrents\The Virgineers - 1999\the Virgineers - the Virgineers - 10 Lost Balloon.flac
  Извлечение успешно выполнено
  Заключение: этот трек - CDDA с вероятностью 100%
  Временный файл удалён.
11 -===- E:\Torrents\The Virgineers - 1999\the Virgineers - the Virgineers - 11 Diesel Train.flac
  Извлечение успешно выполнено
  Заключение: этот трек - CDDA с вероятностью 100%
  Временный файл удалён.
Завершено: вторник, 04. 04. 2017. - 8:50.22 (Время операции: 0:02.35)
Код:
foobar2000 1.3.12 / Замер динамического диапазона (DR) 1.1.1
Дата отчёта:  2017-04-04 08:59:28
--------------------------------------------------------------------------------
Анализ:   the Virgineers / the Virgineers
--------------------------------------------------------------------------------
DR         Пики         RMS           Продолжительность трека
--------------------------------------------------------------------------------
DR11      -0.05 дБ   -12.23 дБ      3:35 01-Love Circus
DR10      -0.10 дБ   -12.26 дБ      3:10 02-Places That I've Never Been
DR10      -0.11 дБ   -11.19 дБ      2:37 03-Sun
DR10      -0.06 дБ   -12.09 дБ      3:50 04-Floating
DR10      -0.09 дБ   -11.89 дБ      4:48 05-Plasticman
DR11      -0.09 дБ   -12.99 дБ      5:00 06-How Far Does Space Go?
DR10      -0.08 дБ   -11.54 дБ      3:56 07-The Morning Moon
DR9       -0.05 дБ   -10.80 дБ      3:51 08-Dr. Glouster
DR10      -0.05 дБ   -10.57 дБ      3:21 09-Be My Guru
DR11      -0.05 дБ   -12.54 дБ      5:24 10-Lost Balloon
DR9       -0.09 дБ   -11.01 дБ      6:23 11-Diesel Train
--------------------------------------------------------------------------------
Количество треков: 11
Реальные значения DR: DR10
Частота:   44100 Гц
Каналов:   2
Разрядность:   16
Битрейт:   898 кбит/с
Кодек:   FLAC
================================================================================
"На своей странице в MySpace участники дуэта сообщают, что их предшественниками были новозеландские группы Dolphins и Apprenticing Thieves. Музыкальный тандем составляют Кен Завацкий (вокал, гитары, клавишники) и Брюс Лэш (вокал, бас-гитара, клавишные, ударные), а также оказывающий им всяческое содействие мужичок по имени Рэй Мьювуд. В настоящее время Тhe Virgineers живут в Лос Анжелесе (Калифорния). Их вполне можно сравнить с такими коллективами как The Dukes Of Stratosphear и The Fraternal Order Of The All. Они тоже стремятся играть в стилистике 60-х годов и у них получается это здорово. Не всегда, правда, но получается. Временами Тhe Virgineers похожи на The Beatles, иногда на The Kinks или The Monkees, а порой - на середнячков из разношерстного стана power-pop..."
https://thevirgineers.bandcamp.com/album/the-virgineers
http://www.virgineers.com/frameset.html
Правила, инструкции, FAQ!!!
Торрент  Добавлен [26 мар 2019, 20:48] Скачать торрент Магнет ссылка
Скачать торрент
[ Размер 13.43 КБ / Просмотров 14 ]

Статус
Проверен 
 
Размер  304.71 МБ
Приватный: Нет (DHT включён)
.torrent скачан  0
 


     Отправить личное сообщение
   
Страница 1 из 1
Показать сообщения за:  Поле сортировки  
Начать новую тему Ответить на тему


Сейчас этот форум просматривают: нет зарегистрированных пользователей и гости: 0


Вы не можете начинать темы
Вы не можете отвечать на сообщения
Вы не можете редактировать свои сообщения
Вы не можете удалять свои сообщения
Вы не можете добавлять вложения

Перейти:  
cron