Начать новую тему Ответить на тему
Статистика раздачи
Размер: 313.15 МБ | Добавлен: 26 мар 2019, 19:52 | Скачали: 0
Сидеров: 0  [0 байт/сек]    Личеров: 0  [0 байт/сек]
Пред. тема | След. тема 

Автор
Сообщение

СообщениеДобавлено: 26 мар 2019, 19:52 

Ответить с цитатой 

Vitamin C / Vitamin C
Жанр: Pop-Rock, Soft Rock, Pop
Страна-производитель диска: Malaysia
Год издания диска: 1999
Издатель (лейбл): EEG Inc.
Номер по каталогу: 62406-2
Страна: USA
Аудио кодек: APE (*.ape)
Тип рипа: image+.cue
Битрейт аудио: lossless
Продолжительность: 00:41:52
Источник (релизер): собственный релиз
Наличие сканов в содержимом раздачи: да
Треклист:
01 - "Smile" (featuring Lady Saw)
02 - "Turn Me On"
03 - "Me, Myself & I"
04 - "Unhappy Anniversary"
05 - "Not That Kind of Girl"
06 - "Do What You Want to Do"
07 - "Girls Against Boys"
08 - "I Got You"
09 - "Money"
10 - "About Last Night"
11 - "Fear of Flying"
12 - "Graduation (Friends Forever)"
Код:
Exact Audio Copy V0.99 prebeta 5 from 4. May 2009
EAC extraction logfile from 6. February 2011, 1:56
Vitamin C / Vitamin C
Used drive  : TSSTcorpCDDVDW TS-L633M   Adapter: 1  ID: 0
Read mode               : Secure
Utilize accurate stream : Yes
Defeat audio cache      : Yes
Make use of C2 pointers : No
Read offset correction                      : 6
Overread into Lead-In and Lead-Out          : No
Fill up missing offset samples with silence : Yes
Delete leading and trailing silent blocks   : No
Null samples used in CRC calculations       : Yes
Used interface                              : Native Win32 interface for Win NT & 2000
Used output format : Internal WAV Routines
Sample format      : 44.100 Hz; 16 Bit; Stereo
TOC of the extracted CD
     Track |   Start  |  Length  | Start sector | End sector
    ---------------------------------------------------------
        1  |  0:00.00 |  3:58.50 |         0    |    17899
        2  |  3:58.50 |  3:47.50 |     17900    |    34974
        3  |  7:46.25 |  3:57.66 |     34975    |    52815
        4  | 11:44.16 |  3:56.26 |     52816    |    70541
        5  | 15:40.42 |  3:27.69 |     70542    |    86135
        6  | 19:08.36 |  3:21.27 |     86136    |   101237
        7  | 22:29.63 |  4:16.52 |    101238    |   120489
        8  | 26:46.40 |  4:01.49 |    120490    |   138613
        9  | 30:48.14 |  3:47.28 |    138614    |   155666
       10  | 34:35.42 |  4:01.31 |    155667    |   173772
       11  | 38:36.73 |  3:15.62 |    173773    |   188459
       12  | 41:52.60 |  5:41.69 |    188460    |   214103
Range status and errors
Selected range
     Filename C:\Users\АОА\Desktop\Vitamin C\Vitamin C - Vitamin C.wav
     Peak level 94.4 %
     Range quality 100.0 %
     Test CRC C1E6E0E8
     Copy CRC C1E6E0E8
     Copy OK
No errors occurred
AccurateRip summary
Track  1  not present in database
Track  2  not present in database
Track  3  not present in database
Track  4  not present in database
Track  5  not present in database
Track  6  not present in database
Track  7  not present in database
Track  8  not present in database
Track  9  not present in database
Track 10  not present in database
Track 11  not present in database
Track 12  not present in database
None of the tracks are present in the AccurateRip database
End of status report
Код:
REM GENRE Pop
REM DATE 1999
REM DISCID 8E0B260C
REM COMMENT "ExactAudioCopy v0.99pb5"
PERFORMER "Vitamin C"
TITLE "Vitamin C"
FILE "Vitamin C - Vitamin C.wav" WAVE
  TRACK 01 AUDIO
    TITLE "Smile"
    PERFORMER "Vitamin C"
    INDEX 01 00:00:00
  TRACK 02 AUDIO
    TITLE "Turn Me On"
    PERFORMER "Vitamin C"
    INDEX 01 03:58:50
  TRACK 03 AUDIO
    TITLE "Me, Myself & I"
    PERFORMER "Vitamin C"
    INDEX 01 07:46:25
  TRACK 04 AUDIO
    TITLE "Unhappy Anniversary"
    PERFORMER "Vitamin C"
    INDEX 01 11:44:16
  TRACK 05 AUDIO
    TITLE "Not That Kind of Girl"
    PERFORMER "Vitamin C"
    INDEX 01 15:40:42
  TRACK 06 AUDIO
    TITLE "Do What You Want to Do"
    PERFORMER "Vitamin C"
    INDEX 01 19:08:36
  TRACK 07 AUDIO
    TITLE "Girls Against Boys"
    PERFORMER "Vitamin C"
    INDEX 01 22:29:63
  TRACK 08 AUDIO
    TITLE "I Got You"
    PERFORMER "Vitamin C"
    INDEX 01 26:46:40
  TRACK 09 AUDIO
    TITLE "Money"
    PERFORMER "Vitamin C"
    INDEX 01 30:48:14
  TRACK 10 AUDIO
    TITLE "About Last Night"
    PERFORMER "Vitamin C"
    INDEX 01 34:35:42
  TRACK 11 AUDIO
    TITLE "Fear of Flying"
    PERFORMER "Vitamin C"
    INDEX 01 38:36:73
  TRACK 12 AUDIO
    TITLE "Graduation (Friends Forever)"
    PERFORMER "Vitamin C"
    INDEX 01 41:52:60
Правила, инструкции, FAQ!!!
Торрент  Добавлен [26 мар 2019, 19:52] Скачать торрент Магнет ссылка
Скачать торрент
[ Размер 13.06 КБ / Просмотров 3 ]

Статус
Проверен 
 
Размер  313.15 МБ
Приватный: Нет (DHT включён)
.torrent скачан  0
 


     Отправить личное сообщение
   
Страница 1 из 1
Показать сообщения за:  Поле сортировки  
Начать новую тему Ответить на тему


Сейчас этот форум просматривают: нет зарегистрированных пользователей и гости: 0


Вы не можете начинать темы
Вы не можете отвечать на сообщения
Вы не можете редактировать свои сообщения
Вы не можете удалять свои сообщения
Вы не можете добавлять вложения

Перейти:  
cron