Начать новую тему Ответить на тему
Статистика раздачи
Размер: 265.64 МБ | Добавлен: 26 мар 2019, 19:58 | Скачали: 0
Сидеров: 0  [0 байт/сек]    Личеров: 0  [0 байт/сек]
Пред. тема | След. тема 

Автор
Сообщение

СообщениеДобавлено: 26 мар 2019, 19:58 

Ответить с цитатой 

Phil Collins - Hello, I Must Be Going!
Жанр: Pop-Rock & Soft Rock
Страна-производитель диска: Germany
Год издания диска: 1982
Издатель (лейбл): WEA
Номер по каталогу: 299263
Страна: UK
Аудио кодек: FLAC
Тип рипа: tracks+.cue
Битрейт аудио: lossless
Продолжительность: 45:30
Источник (релизер): Spammetje
Наличие сканов в содержимом раздачи: Да
Трэклист:
1. I Don't Care Anymore (5:04)
2. I Cannot Believe It's True (5:15)
3. Like China (5:08)
4. Do You Know, Do You Care (4:57)
5. You Can't Hurry Love (2:55)
6. It Don't Matter To Me (4:17)
7. Thru These Walls (5:05)
8. Don't Let Him Steal Your Heart Away (4:45)
9. The West Side (5:01)
10. Why Can't It Wait 'til Morning (3:03)
Код:
Exact Audio Copy V0.99 prebeta 5 from 4. May 2009
EAC extraction logfile from 3. October 2010, 22:24
Phil Collins / Hello, I Must Be Going!
Used drive  : TSSTcorpCDDVDW SH-S203P   Adapter: 1  ID: 0
Read mode               : Secure
Utilize accurate stream : Yes
Defeat audio cache      : Yes
Make use of C2 pointers : No
Read offset correction                      : 6
Overread into Lead-In and Lead-Out          : No
Fill up missing offset samples with silence : Yes
Delete leading and trailing silent blocks   : No
Null samples used in CRC calculations       : Yes
Used interface                              : Native Win32 interface for Win NT & 2000
Gap handling                                : Appended to previous track
Used output format              : User Defined Encoder
Selected bitrate                : 768 kBit/s
Quality                         : High
Add ID3 tag                     : No
Command line compressor         : C:\Program Files (x86)\Exact Audio Copy\FLAC\FLAC.EXE
Additional command line options : -6 -V -T "ARTIST=%a" -T "TITLE=%t" -T "ALBUM=%g" -T "DATE=%y" -T "TRACKNUMBER=%n" -T "GENRE=%m" -T "COMMENT=%e" %s -o %d
TOC of the extracted CD
     Track |   Start  |  Length  | Start sector | End sector
    ---------------------------------------------------------
        1  |  0:10.33 |  5:04.27 |       783    |    23609
        2  |  5:14.60 |  5:15.63 |     23610    |    47297
        3  | 10:30.48 |  5:08.10 |     47298    |    70407
        4  | 15:38.58 |  4:57.52 |     70408    |    92734
        5  | 20:36.35 |  2:55.48 |     92735    |   105907
        6  | 23:32.08 |  4:17.42 |    105908    |   125224
        7  | 27:49.50 |  5:05.18 |    125225    |   148117
        8  | 32:54.68 |  4:45.00 |    148118    |   169492
        9  | 37:39.68 |  5:01.72 |    169493    |   192139
       10  | 42:41.65 |  3:03.45 |    192140    |   205909
Track  1
     Filename E:\_EAC\01 - I Don't Care Anymore.wav
     Pre-gap length  0:00:12.33
     Peak level 83.0 %
     Track quality 100.0 %
     Test CRC 3C544ACD
     Copy CRC 3C544ACD
     Accurately ripped (confidence 30)  [B05A16F5]
     Copy OK
Track  2
     Filename E:\_EAC\02 - I Cannot Believe It's True.wav
     Pre-gap length  0:00:03.35
     Peak level 88.7 %
     Track quality 100.0 %
     Test CRC A54B9BAF
     Copy CRC A54B9BAF
     Accurately ripped (confidence 29)  [94BE5473]
     Copy OK
Track  3
     Filename E:\_EAC\03 - Like China.wav
     Pre-gap length  0:00:02.05
     Peak level 79.0 %
     Track quality 99.9 %
     Test CRC 279E1E5B
     Copy CRC 279E1E5B
     Accurately ripped (confidence 31)  [FA0DF170]
     Copy OK
Track  4
     Filename E:\_EAC\04 - Do You Know, Do You Care.wav
     Pre-gap length  0:00:01.08
     Peak level 100.0 %
     Track quality 100.0 %
     Test CRC 0CF300B9
     Copy CRC 0CF300B9
     Accurately ripped (confidence 29)  [754638AF]
     Copy OK
Track  5
     Filename E:\_EAC\05 - You Can't Hurry Love.wav
     Pre-gap length  0:00:00.30
     Peak level 78.3 %
     Track quality 99.9 %
     Test CRC A960E34C
     Copy CRC A960E34C
     Accurately ripped (confidence 31)  [0809C6EB]
     Copy OK
Track  6
     Filename E:\_EAC\06 - It Don't Matter To Me.wav
     Pre-gap length  0:00:02.53
     Peak level 92.8 %
     Track quality 100.0 %
     Test CRC 98B88A33
     Copy CRC 98B88A33
     Accurately ripped (confidence 30)  [C10D1E05]
     Copy OK
Track  7
     Filename E:\_EAC\07 - Thru These Walls.wav
     Pre-gap length  0:00:04.00
     Peak level 100.0 %
     Track quality 100.0 %
     Test CRC 18314BFA
     Copy CRC 18314BFA
     Accurately ripped (confidence 29)  [7C98A70F]
     Copy OK
Track  8
     Filename E:\_EAC\08 - Don't Let Him Steal Your Heart Away.wav
     Pre-gap length  0:00:01.05
     Peak level 79.6 %
     Track quality 100.0 %
     Test CRC 75589153
     Copy CRC 75589153
     Accurately ripped (confidence 28)  [8E9D231C]
     Copy OK
Track  9
     Filename E:\_EAC\09 - The West Side.wav
     Pre-gap length  0:00:01.10
     Peak level 98.8 %
     Track quality 100.0 %
     Test CRC 67CF6A1A
     Copy CRC 67CF6A1A
     Accurately ripped (confidence 27)  [F28C7EEB]
     Copy OK
Track 10
     Filename E:\_EAC\10 - Why Can't It Wait 'til Morning.wav
     Pre-gap length  0:00:01.70
     Peak level 53.7 %
     Track quality 100.0 %
     Test CRC 8CEA68B8
     Copy CRC 8CEA68B8
     Accurately ripped (confidence 26)  [92264CF9]
     Copy OK
All tracks accurately ripped
No errors occurred
End of status report
Код:
REM GENRE Pop
REM DATE 1982
REM DISCID 7E0AAF0A
REM COMMENT "ExactAudioCopy v0.99pb5"
PERFORMER "Phil Collins"
TITLE "Hello, I Must Be Going!"
FILE "01 - I Don't Care Anymore.wav" WAVE
  TRACK 01 AUDIO
    TITLE "I Don't Care Anymore"
    PERFORMER "Phil Collins"
    PREGAP 00:10:33
    INDEX 01 00:00:00
  TRACK 02 AUDIO
    TITLE "I Cannot Believe It's True"
    PERFORMER "Phil Collins"
    INDEX 00 05:00:67
FILE "02 - I Cannot Believe It's True.wav" WAVE
    INDEX 01 00:00:00
  TRACK 03 AUDIO
    TITLE "Like China"
    PERFORMER "Phil Collins"
    INDEX 00 05:13:58
FILE "03 - Like China.wav" WAVE
    INDEX 01 00:00:00
  TRACK 04 AUDIO
    TITLE "Do You Know, Do You Care"
    PERFORMER "Phil Collins"
    INDEX 00 05:07:02
FILE "04 - Do You Know, Do You Care.wav" WAVE
    INDEX 01 00:00:00
  TRACK 05 AUDIO
    TITLE "You Can't Hurry Love"
    PERFORMER "Phil Collins"
    INDEX 00 04:57:22
FILE "05 - You Can't Hurry Love.wav" WAVE
    INDEX 01 00:00:00
  TRACK 06 AUDIO
    TITLE "It Don't Matter To Me"
    PERFORMER "Phil Collins"
    INDEX 00 02:52:70
FILE "06 - It Don't Matter To Me.wav" WAVE
    INDEX 01 00:00:00
  TRACK 07 AUDIO
    TITLE "Thru These Walls"
    PERFORMER "Phil Collins"
    INDEX 00 04:13:42
FILE "07 - Thru These Walls.wav" WAVE
    INDEX 01 00:00:00
  TRACK 08 AUDIO
    TITLE "Don't Let Him Steal Your Heart Away"
    PERFORMER "Phil Collins"
    INDEX 00 05:04:13
FILE "08 - Don't Let Him Steal Your Heart Away.wav" WAVE
    INDEX 01 00:00:00
  TRACK 09 AUDIO
    TITLE "The West Side"
    PERFORMER "Phil Collins"
    INDEX 00 04:43:65
FILE "09 - The West Side.wav" WAVE
    INDEX 01 00:00:00
  TRACK 10 AUDIO
    TITLE "Why Can't It Wait 'til Morning"
    PERFORMER "Phil Collins"
    INDEX 00 05:00:02
FILE "10 - Why Can't It Wait 'til Morning.wav" WAVE
    INDEX 01 00:00:00
Правила, инструкции, FAQ!!!
Торрент  Добавлен [26 мар 2019, 19:58] Скачать торрент Магнет ссылка
Скачать торрент
[ Размер 11.83 КБ / Просмотров 3 ]

Статус
Проверен 
 
Размер  265.64 МБ
Приватный: Нет (DHT включён)
.torrent скачан  0
 


     Отправить личное сообщение
   
Страница 1 из 1
Показать сообщения за:  Поле сортировки  
Начать новую тему Ответить на тему


Сейчас этот форум просматривают: нет зарегистрированных пользователей и гости: 0


Вы не можете начинать темы
Вы не можете отвечать на сообщения
Вы не можете редактировать свои сообщения
Вы не можете удалять свои сообщения
Вы не можете добавлять вложения

Перейти:  
cron