Начать новую тему Ответить на тему
Статистика раздачи
Размер: 734.86 МБ | Добавлен: 26 мар 2019, 20:04 | Скачали: 0
Сидеров: 3  [0 байт/сек]    Личеров: 1  [0 байт/сек]
Пред. тема | След. тема 

Автор
Сообщение

СообщениеДобавлено: 26 мар 2019, 20:04 

Ответить с цитатой 

Phil Collins & Dire Straits (Live U.S.A.)
Жанр: Pop-Rock & Soft Rock
Год выхода альбомов: 1983 /1979
Производитель диска: Germany
Аудио кодек: APE
Тип рипа: image+.cue
Битрейт аудио: lossless
Продолжительность: 72:34 / 52:00
Трэклист:
Phil Collins (Recorded Live In California U.S.A. In 1983)
01. I Don`t Care Anymore - 4:47
02. I Can`t Believe It`s True - 5:20
03. This Must Be Love - 4:22
04. Through These Walls - 4:56
05. I Missed Again - 3:38
06. Behind The Lines - 3:43
07. The Roof Is Leaking - 3:14
08. Don`t Let Him Steal Your Heart - 5:41
09. The West -5:53
10. In The Air Tonight - 5:17
11. You Can`t Hurry Love - 3:26
12. It Don`t Matter To Me - 4:18
13. Hand To Hand - 8:10
14 And So To F - 6:04
15. People Get Ready - 3:04
Dire Straits (Recorded Live At "The Tower Theatre" - Philadephia PA - U.S.A. On March 3. 1979)
01. Sultans Of Swing - 5:58
02. Eastbound Train - 3:42
03. Southbound Again - 4:33
04. Water Of Love - 5:35
05. What`s The Matter With You Baby - 2:47
06. Lions - 5:48
07. Six Blade Knife - 4:16
08. Down The Waterline - 2:59
09. In The Gallery - 5:45
10. Wild West End - 4:50
Доп. информация:
Exact Audio Copy V0.99 prebeta 4 from 23. January 2008
Отчёт EAC об извлечении, выполненном 13. апреля 2009, 7:59
Phil Collins / Live USA
Дисковод: ASUS DRW-2014L1T Adapter: 2 ID: 0
Режим чтения : Достоверность
Использование точного потока : Да
Отключение кэша аудио : Да
Использование указателей C2 : Нет
Коррекция смещения при чтении : 6
Способность читать области Lead-in и Lead-out : Нет
Заполнение пропущенных сэмплов тишиной : Да
Удаление блоков с тишиной в начале и конце : Нет
При вычислениях CRC использовались нулевые сэмплы : Да
Интерфейс : Встроенный Win32-интерфейс для Win NT/2000
Выходной формат : Внутренние WAV-операции
Формат сэмплов : 44.100 Гц; 16 бит; стерео
TOC извлечённого CD
Трек | Старт | Длительность | Начальный сектор | Конечный сектор
---------------------------------------------------------------------
1 | 0:00.00 | 4:51.30 | 0 | 21854
2 | 4:51.30 | 5:21.55 | 21855 | 45984
3 | 10:13.10 | 4:24.30 | 45985 | 65814
4 | 14:37.40 | 4:59.23 | 65815 | 88262
5 | 19:36.63 | 3:39.42 | 88263 | 104729
6 | 23:16.30 | 3:44.63 | 104730 | 121592
7 | 27:01.18 | 3:18.57 | 121593 | 136499
8 | 30:20.00 | 5:41.48 | 136500 | 162122
9 | 36:01.48 | 5:56.40 | 162123 | 188862
10 | 41:58.13 | 5:19.60 | 188863 | 212847
11 | 47:17.73 | 3:28.40 | 212848 | 228487
12 | 50:46.38 | 4:19.35 | 228488 | 247947
13 | 55:05.73 | 8:11.67 | 247948 | 284839
14 | 63:17.65 | 6:08.03 | 284840 | 312442
15 | 69:25.68 | 3:10.02 | 312443 | 326694
Характеристики диапазона извлечения и сообщения об ошибках
Выбранный диапазон
Имя файла G:\Torrents\Phil Collins&Dire Straits\Phil Collins\Phil Collins - Live USA.wav
Пиковый уровень 100.0 %
Качество диапазона 99.9 %
CRC копии 112CBBC3
Копирование... OK
Ошибок не произошло
AccurateRip: сводка
Трек 1 точное извлечение (доверие 5) [B112D540]
Трек 2 точное извлечение (доверие 5) [85D1FA1D]
Трек 3 точное извлечение (доверие 5) [792B18D9]
Трек 4 точное извлечение (доверие 4) [6484183C]
Трек 5 точное извлечение (доверие 5) [93406CF7]
Трек 6 точное извлечение (доверие 5) [583A4BA4]
Трек 7 точное извлечение (доверие 5) [53270049]
Трек 8 точное извлечение (доверие 5) [83EA7629]
Трек 9 точное извлечение (доверие 5) [A0BE463D]
Трек 10 точное извлечение (доверие 5) [B4EBB160]
Трек 11 точное извлечение (доверие 5) [D1374B2A]
Трек 12 точное извлечение (доверие 5) [92A1EC99]
Трек 13 точное извлечение (доверие 4) [48B553C9]
Трек 14 точное извлечение (доверие 5) [99E75AE2]
Трек 15 точное извлечение (доверие 5) [8E44F8C9]
Все треки извлечены точно
Конец отчёта
Exact Audio Copy V0.99 prebeta 4 from 23. January 2008
Отчёт EAC об извлечении, выполненном 13. апреля 2009, 8:18
Dire Straits / Live USA
Дисковод: ASUS DRW-2014L1T Adapter: 2 ID: 0
Режим чтения : Достоверность
Использование точного потока : Да
Отключение кэша аудио : Да
Использование указателей C2 : Нет
Коррекция смещения при чтении : 6
Способность читать области Lead-in и Lead-out : Нет
Заполнение пропущенных сэмплов тишиной : Да
Удаление блоков с тишиной в начале и конце : Нет
При вычислениях CRC использовались нулевые сэмплы : Да
Интерфейс : Встроенный Win32-интерфейс для Win NT/2000
Выходной формат : Внутренние WAV-операции
Формат сэмплов : 44.100 Гц; 16 бит; стерео
TOC извлечённого CD
Трек | Старт | Длительность | Начальный сектор | Конечный сектор
---------------------------------------------------------------------
1 | 0:00.00 | 6:29.48 | 0 | 29222
2 | 6:29.48 | 4:23.25 | 29223 | 48972
3 | 10:52.73 | 5:03.30 | 48973 | 71727
4 | 15:56.28 | 7:10.70 | 71728 | 104047
5 | 23:07.23 | 3:27.47 | 104048 | 119619
6 | 26:34.70 | 6:02.70 | 119620 | 146839
7 | 32:37.65 | 4:33.00 | 146840 | 167314
8 | 37:10.65 | 3:07.13 | 167315 | 181352
9 | 40:18.03 | 5:50.35 | 181353 | 207637
10 | 46:08.38 | 5:43.45 | 207638 | 233407
Характеристики диапазона извлечения и сообщения об ошибках
Выбранный диапазон
Имя файла G:\Torrents\Phil Collins&Dire Straits\Dire Straits\Dire Straits - Live USA.wav
Пиковый уровень 86.5 %
Качество диапазона 99.9 %
CRC копии 962223FD
Копирование... OK
Ошибок не произошло
AccurateRip: сводка
Трек 1 точное извлечение (доверие 4) [88F22E8C]
Трек 2 точное извлечение (доверие 4) [AA283107]
Трек 3 точное извлечение (доверие 4) [3F491B89]
Трек 4 точное извлечение (доверие 4) [7E062F15]
Трек 5 точное извлечение (доверие 4) [645263A5]
Трек 6 точное извлечение (доверие 4) [5CBF07CF]
Трек 7 точное извлечение (доверие 4) [25607DFD]
Трек 8 точное извлечение (доверие 4) [1E9F2F50]
Трек 9 точное извлечение (доверие 4) [FA41B42C]
Трек 10 точное извлечение (доверие 4) [0FD97B55]
Все треки извлечены точно
Конец отчёта
Правила, инструкции, FAQ!!!
Торрент  Добавлен [26 мар 2019, 20:04] Скачать торрент Магнет ссылка
Скачать торрент
[ Размер 15.61 КБ / Просмотров 4 ]

Статус
Проверен 
 
Размер  734.86 МБ
Приватный: Нет (DHT включён)
.torrent скачан  0
 


     Отправить личное сообщение
   
Страница 1 из 1
Показать сообщения за:  Поле сортировки  
Начать новую тему Ответить на тему


Сейчас этот форум просматривают: нет зарегистрированных пользователей и гости: 0


Вы не можете начинать темы
Вы не можете отвечать на сообщения
Вы не можете редактировать свои сообщения
Вы не можете удалять свои сообщения
Вы не можете добавлять вложения

Перейти:  
cron