Начать новую тему Ответить на тему
Статистика раздачи
Размер: 355.88 МБ | Добавлен: 26 мар 2019, 20:14 | Скачали: 0
Сидеров: 1  [0 байт/сек]    Личеров: 0  [0 байт/сек]
Пред. тема | След. тема 

Автор
Сообщение

СообщениеДобавлено: 26 мар 2019, 20:14 

Ответить с цитатой 

Phil Collins / ...But Seriously
Жанр: Pop-Rock & Soft Rock
Страна-производитель диска: Korea
Год издания: 1989
Издатель (лейбл): SKC Korea
Номер по каталогу: 2292-56984-2
Страна: UK
Аудиокодек: APE (*.ape)
Тип рипа: image+.cue
Битрейт аудио: lossless
Продолжительность: 0:59:45
Источник (релизер): Собственный релиз
Наличие сканов в содержимом раздачи: да
Треклист:
01. Hang In Long Enough
02. That's Just The Way It Is
03. Do You Remember?
04. Something Happened On The Way To Heaven
05. Colours
06. I Wish It Would Rain Down
07. Another Day In Paradise
08. Heat On The Street
09. All Of My Life
10. Saturday Night And Sunday Morning
11. Father To Son
12. Find A Way To My Heart
Код:
Exact Audio Copy V0.99 prebeta 5 from 4. May 2009
Отчёт EAC об извлечении, выполненном 4. января 2013, 12:00
Phil Collins / ...But Seriously
Дисковод: Optiarc DVD RW AD-7200S   Adapter: 2  ID: 0
Режим чтения                 : Достоверность
Использование точного потока : Да
Отключение кэша аудио        : Да
Использование указателей C2  : Нет
Коррекция смещения при чтении                     : 48
Способность читать области Lead-in и Lead-out     : Нет
Заполнение пропущенных сэмплов тишиной            : Да
Удаление блоков с тишиной в начале и конце        : Нет
При вычислениях CRC использовались нулевые сэмплы : Да
Интерфейс                                         : Встроенный Win32-интерфейс для Win NT/2000
Выходной формат : Внутренние WAV-операции
Формат сэмплов  : 44.100 Гц; 16 бит; стерео
TOC извлечённого CD
     Трек |   Старт  | Длительность | Начальный сектор | Конечный сектор
    ---------------------------------------------------------------------
       1  |  0:00.00 |    4:44.13   |           0      |      21312
       2  |  4:44.13 |    5:20.22   |       21313      |      45334
       3  | 10:04.35 |    4:36.00   |       45335      |      66034
       4  | 14:40.35 |    4:51.43   |       66035      |      87902
       5  | 19:32.03 |    8:51.07   |       87903      |     127734
       6  | 28:23.10 |    5:27.55   |      127735      |     152314
       7  | 33:50.65 |    5:22.10   |      152315      |     176474
       8  | 39:13.00 |    3:51.48   |      176475      |     193847
       9  | 43:04.48 |    5:35.37   |      193848      |     219009
      10  | 48:40.10 |    1:25.63   |      219010      |     225447
      11  | 50:05.73 |    3:27.72   |      225448      |     241044
      12  | 53:33.70 |    6:11.23   |      241045      |     268892
Характеристики диапазона извлечения и сообщения об ошибках
Выбранный диапазон
     Имя файла C:\Users\Bishop\Desktop\Phil Collins - ...But Seriously.(Korea)\Phil Collins - ...But Seriously.wav
     Пиковый уровень 100.0 %
     Качество диапазона 100.0 %
     CRC теста 73042963
     CRC копии 73042963
     Копирование... OK
Ошибок не произошло
AccurateRip: сводка
Трек  1  точное извлечение (доверие 12)  [9519C2DD]
Трек  2  точное извлечение (доверие 12)  [3F8546E3]
Трек  3  точное извлечение (доверие 12)  [796F24E0]
Трек  4  точное извлечение (доверие 12)  [AE036D76]
Трек  5  точное извлечение (доверие 12)  [C5B6CABF]
Трек  6  точное извлечение (доверие 12)  [77BB83B9]
Трек  7  точное извлечение (доверие 12)  [5A3E285C]
Трек  8  точное извлечение (доверие 11)  [582B3C37]
Трек  9  точное извлечение (доверие 12)  [6B5DC42A]
Трек 10  точное извлечение (доверие 12)  [7B1E19D0]
Трек 11  точное извлечение (доверие 12)  [B136F7B1]
Трек 12  точное извлечение (доверие 11)  [C350EB22]
Все треки извлечены точно
Конец отчёта
Код:
REM GENRE Rock
REM DATE 1989
REM DISCID 990E010C
REM COMMENT ExactAudioCopy v0.99pb5
PERFORMER "Phil Collins"
TITLE "...But Seriously"
FILE "Phil Collins - ...But Seriously.ape" WAVE
  TRACK 01 AUDIO
    TITLE "Hang In Long Enough"
    INDEX 01 00:00:00
  TRACK 02 AUDIO
    TITLE "Thats Just The Way It Is"
    INDEX 01 04:44:13
  TRACK 03 AUDIO
    TITLE "Do You Remember?"
    INDEX 01 10:04:35
  TRACK 04 AUDIO
    TITLE "Something Happended On The Way To Heaven"
    INDEX 01 14:40:35
  TRACK 05 AUDIO
    TITLE "Colours"
    INDEX 00 19:31:60
    INDEX 01 19:32:03
  TRACK 06 AUDIO
    TITLE "I Wish It Would Rain Down"
    INDEX 00 28:21:60
    INDEX 01 28:23:10
  TRACK 07 AUDIO
    TITLE "Another Day In Paradise"
    INDEX 01 33:50:65
  TRACK 08 AUDIO
    TITLE "Heat On The Street"
    INDEX 01 39:13:00
  TRACK 09 AUDIO
    TITLE "All Of My Life"
    INDEX 01 43:04:48
  TRACK 10 AUDIO
    TITLE "Saturday Night And Sunday Morning"
    INDEX 01 48:40:10
  TRACK 11 AUDIO
    TITLE "Father To Son"
    INDEX 01 50:05:73
  TRACK 12 AUDIO
    TITLE "Find A Way To My Heart"
    INDEX 01 53:33:70
Правила, инструкции, FAQ!!!
Торрент  Добавлен [26 мар 2019, 20:14] Скачать торрент Магнет ссылка
Скачать торрент
[ Размер 14.67 КБ / Просмотров 4 ]

Статус
Проверен 
 
Размер  355.88 МБ
Приватный: Нет (DHT включён)
.torrent скачан  0
 


     Отправить личное сообщение
   
Страница 1 из 1
Показать сообщения за:  Поле сортировки  
Начать новую тему Ответить на тему


Сейчас этот форум просматривают: нет зарегистрированных пользователей и гости: 0


Вы не можете начинать темы
Вы не можете отвечать на сообщения
Вы не можете редактировать свои сообщения
Вы не можете удалять свои сообщения
Вы не можете добавлять вложения

Перейти:  
cron