Начать новую тему Ответить на тему
Статистика раздачи
Размер: 352.87 МБ | Добавлен: 26 мар 2019, 20:43 | Скачали: 0
Сидеров: 0  [0 байт/сек]    Личеров: 0  [0 байт/сек]
Пред. тема | След. тема 

Автор
Сообщение

СообщениеДобавлено: 26 мар 2019, 20:43 

Ответить с цитатой 

Peter Gallway / On The Bandstand
Жанр: pop rock, soft rock
Носитель: CD
Страна-производитель диска (релиза): Japan
Год издания: 1978
Издатель (лейбл): Vivid sound
Номер по каталогу: RATCD-4265
Страна исполнителя (группы): USA
Аудиокодек: FLAC (*.flac)
Тип рипа: image+.cue
Битрейт аудио: lossless
Продолжительность: 01:03:07
Источник (релизер): собственный рип
Наличие сканов в содержимом раздачи: да
Треклист:
01. Sunday Basketball 02:59
02. I Had A Friend 03:36
03. I'd Give It All To You 03:40
04. Liz 03:32
05. They Went That-A Way 03:44
06. On The Bandstand 04:43
07. No Other Words 05:05
08. The Make Believe Mambo 04:29
09. Table For Two 03:14
10. Sally B. And Me 02:58
Bonus Track:
11. Tokyo To Kokomo 05:12
12. Tropical Dandy (For Haruomi Hosono) 03:44
13. Loco Banana 04:01
14. Creole Cul-De-Sac 04:22
15. State Street 04:06
16. Fallin' Out Of Love 03:14
Код:
Exact Audio Copy V1.1 from 23. June 2015
Отчёт EAC об извлечении, выполненном 2. февраля 2016, 13:01
Peter Gallway / On The Bandstand
Дисковод: ASUS    DRW-24B3ST   Adapter: 0  ID: 0
Режим чтения                 : Достоверность
Использование точного потока : Да
Отключение кэша аудио        : Да
Использование указателей C2  : Нет
Коррекция смещения при чтении                     : 6
Способность читать области Lead-in и Lead-out     : Нет
Заполнение пропущенных сэмплов тишиной            : Да
Удаление блоков с тишиной в начале и конце        : Нет
При вычислениях CRC использовались нулевые сэмплы : Да
Интерфейс                                         : Установленный внешний ASPI-интерфейс
Выходной формат          : Пользовательский кодировщик
Выбранный битрейт        : 896 kBit/s
Качество                 : Высокий
Добавление ID3-тега      : Нет
Утилита сжатия           : C:\Program Files (x86)\Exact Audio Copy\FLAC\FLAC.EXE
Дополнительные параметры : -6 -V -T "ARTIST=%artist%" -T "TITLE=%title%" -T "ALBUM=%albumtitle%" -T "DATE=%year%" -T "TRACKNUMBER=%tracknr%" -T "GENRE=%genre%" -T "COMMENT=%comment%" -T "BAND=%albuminterpret%" -T "ALBUMARTIST=%albuminterpret%" -T "COMPOSER=%composer%" %haslyrics%--tag-from-file=LYRICS="%lyricsfile%"%haslyrics% -T "DISCNUMBER=%cdnumber%" -T "TOTALDISCS=%totalcds%" -T "TOTALTRACKS=%numtracks%" %hascover%--picture="%coverfile%"%hascover% %source% -o %dest%
TOC извлечённого CD
     Трек |   Старт  | Длительность | Начальный сектор | Конечный сектор
    ---------------------------------------------------------------------
       1  |  0:00.00 |    2:59.63   |           0      |      13487
       2  |  2:59.63 |    3:36.45   |       13488      |      29732
       3  |  6:36.33 |    3:40.02   |       29733      |      46234
       4  | 10:16.35 |    3:32.11   |       46235      |      62145
       5  | 13:48.46 |    3:44.16   |       62146      |      78961
       6  | 17:32.62 |    4:43.19   |       78962      |     100205
       7  | 22:16.06 |    5:05.74   |      100206      |     123154
       8  | 27:22.05 |    4:30.00   |      123155      |     143404
       9  | 31:52.05 |    3:14.66   |      143405      |     158020
      10  | 35:06.71 |    2:58.45   |      158021      |     171415
      11  | 38:05.41 |    5:12.02   |      171416      |     194817
      12  | 43:17.43 |    3:44.52   |      194818      |     211669
      13  | 47:02.20 |    4:01.70   |      211670      |     229814
      14  | 51:04.15 |    4:22.44   |      229815      |     249508
      15  | 55:26.59 |    4:06.27   |      249509      |     267985
      16  | 59:33.11 |    3:34.33   |      267986      |     284068
Характеристики диапазона извлечения и сообщения об ошибках
Выбранный диапазон
     Имя файла E:\Torrents\Peter Gallway - 1978 - On The Bandstand\Peter Gallway - On The Bandstand.wav
     Пиковый уровень 100.0 %
     Скорость извлечения 8.8 X
     Качество диапазона 100.0 %
     CRC теста AEE04850
     CRC копии AEE04850
     Копирование... OK
Ошибок не произошло
Конец отчёта
==== Контрольная сумма отчёта 6666B8550EE4DBE90106773803D702F8766FB4B4C53368DF54DC9299B5027FC0 ====
Guitars - Denny Williams, David Landau, Will MacFarlane,
Larry John McNally, Mark Wainer, Paul Rishell
Keyboards - Jon Hardy, Kevin De Simone, Harry King, David Case, Murry Weinstock
Steel Drum Guitar - John Moses
Bass - Rob Roy, Dave Conrad, James Libbey, Neil Stubenhaus
Drums - Steve Johnson, Tom Blackwell, Jeff Teague, Ron Lapointe, Perry Morin
Правила, инструкции, FAQ!!!
Торрент  Добавлен [26 мар 2019, 20:43] Скачать торрент Магнет ссылка
Скачать торрент
[ Размер 14.86 КБ / Просмотров 6 ]

Статус
Проверен 
 
Размер  352.87 МБ
Приватный: Нет (DHT включён)
.torrent скачан  0
 


     Отправить личное сообщение
   
Страница 1 из 1
Показать сообщения за:  Поле сортировки  
Начать новую тему Ответить на тему


Сейчас этот форум просматривают: нет зарегистрированных пользователей и гости: 0


Вы не можете начинать темы
Вы не можете отвечать на сообщения
Вы не можете редактировать свои сообщения
Вы не можете удалять свои сообщения
Вы не можете добавлять вложения

Перейти:  
cron