Начать новую тему Ответить на тему
Статистика раздачи
Размер: 346.5 МБ | Добавлен: 26 мар 2019, 20:43 | Скачали: 0
Сидеров: 3  [0 байт/сек]    Личеров: 1  [0 байт/сек]
Пред. тема | След. тема 

Автор
Сообщение

СообщениеДобавлено: 26 мар 2019, 20:43 

Ответить с цитатой 

Paul Simon - Negotiations And Love Songs
Жанр: Pop-Rock & Soft Rock
Год выпуска диска: 1988
Производитель диска: США
Аудио кодек: FLAC
Тип рипа: image+.cue
Битрейт аудио: lossless
Продолжительность: 1:03:14
Трэклист:
01. Mother And Child Reunion (Album Version) 3:04
02. Me And Julio Down By The Schoolyard (Album Version) 2:44
03. Something So Right (LP Version) 4:32
04. St. Judy's Comet (LP Version) 3:19
05. Loves Me Like A Rock (Album Version) 3:32
06. Kodachrome (Album Version) 3:34
07. Have A Good Time (LP Version) 3:26
08. 50 Ways To Leave Your Lover (Album Version) 3:32
09. Still Crazy After All These Years (Album Version) 3:25
10. Late In The Evening (Album Version) 4:02
11. Slip Slidin' Away (Album Version) 4:45
12. Hearts And Bones (Album Version) 5:39
13. Train In The Distance (Album Version) 4:22
14. Rene And Georgette Magritte With Their Dog After The War (Album Version) 3:43
15. Diamonds On The Soles Of Her Shoes (Album Version) 5:45
16. You Can Call Me Al (Album Version) 4:36
Код:
Exact Audio Copy V0.99 prebeta 4 from 23. January 2008
Отчёт EAC об извлечении, выполненном 26. января 2009, 18:57
Paul Simon / Negotiations And Love Songs
Дисковод: Optiarc DVD RW AD-7200A   Adapter: 0  ID: 0
Режим чтения                 : Достоверность
Использование точного потока : Да
Отключение кэша аудио        : Да
Использование указателей C2  : Нет
Коррекция смещения при чтении                     : 48
Способность читать области Lead-in и Lead-out     : Нет
Заполнение пропущенных сэмплов тишиной            : Да
Удаление блоков с тишиной в начале и конце        : Нет
При вычислениях CRC использовались нулевые сэмплы : Нет
Интерфейс                                         : Установленный внешний ASPI-интерфейс
Выходной формат          : Пользовательский кодировщик
Выбранный битрейт        : 768 kBit/s
Качество                 : Высокий
Добавление ID3-тэга      : Нет
Утилита сжатия           : C:\Program Files\Exact Audio Copy\FLAC\FLAC.EXE
Дополнительные параметры : -6 -V -T "ARTIST=%a" -T "TITLE=%t" -T "ALBUM=%g" -T "DATE=%y" -T "TRACKNUMBER=%n" -T "GENRE=%m" -T "COMMENT=%e" %s -o %d
TOC извлечённого CD
     Трек |   Старт  | Длительность | Начальный сектор | Конечный сектор
    ---------------------------------------------------------------------
       1  |  0:00.32 |    2:49.00   |          32      |      12706
       2  |  2:49.32 |    2:43.40   |       12707      |      24971
       3  |  5:32.72 |    4:30.38   |       24972      |      45259
       4  | 10:03.35 |    3:16.57   |       45260      |      60016
       5  | 13:20.17 |    3:18.10   |       60017      |      74876
       6  | 16:38.27 |    3:30.40   |       74877      |      90666
       7  | 20:08.67 |    3:22.63   |       90667      |     105879
       8  | 23:31.55 |    3:32.05   |      105880      |     121784
       9  | 27:03.60 |    3:22.47   |      121785      |     136981
      10  | 30:26.32 |    3:54.03   |      136982      |     154534
      11  | 34:20.35 |    4:43.32   |      154535      |     175791
      12  | 39:03.67 |    5:38.28   |      175792      |     201169
      13  | 44:42.20 |    4:22.20   |      201170      |     220839
      14  | 49:04.40 |    3:43.47   |      220840      |     237611
      15  | 52:48.12 |    5:45.70   |      237612      |     263556
      16  | 58:34.07 |    4:40.25   |      263557      |     284581
Характеристики диапазона извлечения и сообщения об ошибках
Выбранный диапазон
     Имя файла D:\Раздачи\Paul Simon - Negotiations And Love Songs\Paul Simon - Negotiations And Love Songs.wav
     Пиковый уровень 98.5 %
     Качество диапазона 99.9 %
     CRC копии D3C0C7D5
     Копирование... OK
Ошибок не произошло
AccurateRip: сводка
Трек  1  точное извлечение (доверие 57)  [84FDB719]
Трек  2  точное извлечение (доверие 59)  [2C7DF187]
Трек  3  точное извлечение (доверие 58)  [A9F34A83]
Трек  4  точное извлечение (доверие 57)  [58C51C5C]
Трек  5  точное извлечение (доверие 60)  [5EACBA3C]
Трек  6  точное извлечение (доверие 60)  [9309F30F]
Трек  7  точное извлечение (доверие 59)  [5655CD31]
Трек  8  точное извлечение (доверие 59)  [BD14E45F]
Трек  9  точное извлечение (доверие 58)  [58363BB8]
Трек 10  точное извлечение (доверие 57)  [C33D09A5]
Трек 11  точное извлечение (доверие 58)  [8CACAFA3]
Трек 12  точное извлечение (доверие 58)  [94E5C8BE]
Трек 13  точное извлечение (доверие 57)  [02E342CA]
Трек 14  точное извлечение (доверие 55)  [31EE13C2]
Трек 15  точное извлечение (доверие 51)  [17309DBA]
Трек 16  точное извлечение (доверие 52)  [C88EBA56]
Все треки извлечены точно
Конец отчёта
Код:
[url=http://ipicture.ru/Gallery/Viewfull/12280317.html][img]http://pic.ipicture.ru/uploads/090126/thumbs/UCWFs3RVRx.jpg[/img][/url][url=http://ipicture.ru/Gallery/Viewfull/12280367.html][img]http://pic.ipicture.ru/uploads/090126/thumbs/aLSjI5T7VG.jpg[/img][/url][url=http://ipicture.ru/Gallery/Viewfull/12280402.html][img]http://pic.ipicture.ru/uploads/090126/thumbs/tAqa7SSUgS.jpg[/img][/url][url=http://ipicture.ru/Gallery/Viewfull/12280440.html][img]http://pic.ipicture.ru/uploads/090126/thumbs/V2wOi7EyKR.jpg[/img][/url]
[url=http://ipicture.ru/Gallery/Viewfull/12280470.html][img]http://pic.ipicture.ru/uploads/090126/thumbs/Xy2yymwDrG.jpg[/img][/url][url=http://ipicture.ru/Gallery/Viewfull/12280520.html][img]http://pic.ipicture.ru/uploads/090126/thumbs/qLfNSkU7VO.jpg[/img][/url][url=http://ipicture.ru/Gallery/Viewfull/12280550.html][img]http://pic.ipicture.ru/uploads/090126/thumbs/GT4kC7EGW3.jpg[/img][/url][url=http://ipicture.ru/Gallery/Viewfull/12280577.html][img]http://pic.ipicture.ru/uploads/090126/thumbs/wiTcBRfIy3.jpg[/img][/url]
[url=http://ipicture.ru/Gallery/Viewfull/12280599.html][img]http://pic.ipicture.ru/uploads/090126/thumbs/OuFzqvT3CC.jpg[/img][/url]
Правила, инструкции, FAQ!!!
Торрент  Добавлен [26 мар 2019, 20:43] Скачать торрент Магнет ссылка
Скачать торрент
[ Размер 14.68 КБ / Просмотров 24 ]

Статус
Проверен 
 
Размер  346.5 МБ
Приватный: Нет (DHT включён)
.torrent скачан  0
 


     Отправить личное сообщение
   
Страница 1 из 1
Показать сообщения за:  Поле сортировки  
Начать новую тему Ответить на тему


Сейчас этот форум просматривают: нет зарегистрированных пользователей и гости: 0


Вы не можете начинать темы
Вы не можете отвечать на сообщения
Вы не можете редактировать свои сообщения
Вы не можете удалять свои сообщения
Вы не можете добавлять вложения

Перейти:  
cron