Начать новую тему Ответить на тему
Статистика раздачи
Размер: 257.76 МБ | Добавлен: 26 мар 2019, 20:36 | Скачали: 1
Сидеров: 0  [0 байт/сек]    Личеров: 2  [0 байт/сек]
Пред. тема | След. тема 

Автор
Сообщение

СообщениеДобавлено: 26 мар 2019, 20:36 

Ответить с цитатой 

Neil Diamond - His 12 Greatest Hits (1974)
Жанр: pop rock, soft rock
Страна-производитель диска: US
Год издания: 1974
Издатель (лейбл): MCA
Номер по каталогу: MCD 02550
Страна: US
Аудиокодек: APE (*.ape)
Тип рипа: image+.cue
Битрейт аудио: lossless
Продолжительность: 0:36:25
Источник (релизер): eDonkey/ed2k (TheWarrior)
Наличие сканов в содержимом раздачи: да
Треклист:
01. Sweet Caroline (Live) - 4:15
02. Brother Love's Traveling Salvation Show - 3:26
03. Shilo - 2:59
04. Holly Holy (Live) - 5:40
05. Brooklyn Roads - 3:39
06. Cracklin' Rosie - 3:00
07. Play Me - 3:49
08. Done Too Soon - 2:45
09. Stones - 3:03
10. Song Sung Blue- 3:15
11. Soolaimon - 4:33
12. I Am...I Said - 3:32
Код:
Exact Audio Copy V0.99 prebeta 4 from 23. January 2008
EAC extraction logfile from 28. March 2009, 8:37
Neil Diamond / His 12 Greatest Hits
Used drive  : ATAPI   DVD A  DH20A4P   Adapter: 1  ID: 0
Read mode               : Secure
Utilize accurate stream : Yes
Defeat audio cache      : Yes
Make use of C2 pointers : No
Read offset correction                      : 6
Overread into Lead-In and Lead-Out          : No
Fill up missing offset samples with silence : Yes
Delete leading and trailing silent blocks   : No
Null samples used in CRC calculations       : Yes
Used interface                              : Installed external ASPI interface
Used output format : Internal WAV Routines
Sample format      : 44.100 Hz; 16 Bit; Stereo
TOC of the extracted CD
     Track |   Start  |  Length  | Start sector | End sector
    ---------------------------------------------------------
        1  |  0:00.32 |  4:17.43 |        32    |    19349
        2  |  4:18.00 |  3:29.42 |     19350    |    35066
        3  |  7:47.42 |  2:58.30 |     35067    |    48446
        4  | 10:45.72 |  5:39.73 |     48447    |    73944
        5  | 16:25.70 |  3:41.67 |     73945    |    90586
        6  | 20:07.62 |  2:59.73 |     90587    |   104084
        7  | 23:07.60 |  3:53.45 |    104085    |   121604
        8  | 27:01.30 |  2:43.20 |    121605    |   133849
        9  | 29:44.50 |  3:06.07 |    133850    |   147806
       10  | 32:50.57 |  3:16.15 |    147807    |   162521
       11  | 36:06.72 |  4:19.23 |    162522    |   181969
       12  | 40:26.20 |  3:33.32 |    181970    |   197976
Range status and errors
Selected range
     Filename C:\Documents and Settings\Marta & Marнa\Escritorio\IСAKI\EAC IMATGES\Neil Diamond - His 12 Greatest Hits\Neil Diamond - His 12 Greatest Hits.wav
     Peak level 100.0 %
     Range quality 100.0 %
     Test CRC 69E48CDB
     Copy CRC 69E48CDB
     Copy OK
No errors occurred
AccurateRip summary
Track  1  not present in database
Track  2  not present in database
Track  3  not present in database
Track  4  not present in database
Track  5  not present in database
Track  6  not present in database
Track  7  not present in database
Track  8  not present in database
Track  9  not present in database
Track 10  not present in database
Track 11  not present in database
Track 12  not present in database
None of the tracks are present in the AccurateRip database
End of status report
Код:
REM GENRE Slow Rock
REM DATE 1974
REM DISCID BD0A4F0C
REM COMMENT ExactAudioCopy v0.99pb4
CATALOG 0000000000000
PERFORMER "NEIL DIAMOND"
TITLE "His 12 Greatest Hits"
FILE "Neil Diamond - His 12 Greatest Hits.ape" WAVE
  TRACK 01 AUDIO
    TITLE "Sweet Caroline"
    INDEX 00 00:00:00
    INDEX 01 00:00:32
  TRACK 02 AUDIO
    TITLE "Brother Love's Travelling Salvation Show"
    INDEX 00 04:16:10
    INDEX 01 04:18:00
  TRACK 03 AUDIO
    TITLE "Shilo"
    INDEX 00 07:45:40
    INDEX 01 07:47:42
  TRACK 04 AUDIO
    TITLE "Holly Holy"
    INDEX 00 10:44:05
    INDEX 01 10:45:72
  TRACK 05 AUDIO
    TITLE "Brooklyn Road"
    INDEX 00 16:23:57
    INDEX 01 16:25:70
  TRACK 06 AUDIO
    TITLE "Cracklin' Rosie"
    INDEX 00 20:05:62
    INDEX 01 20:07:62
  TRACK 07 AUDIO
    TITLE "Play Me"
    INDEX 00 23:05:60
    INDEX 01 23:07:60
  TRACK 08 AUDIO
    TITLE "Done Too Soon"
    INDEX 00 26:59:30
    INDEX 01 27:01:30
  TRACK 09 AUDIO
    TITLE "Stones"
    INDEX 00 29:42:50
    INDEX 01 29:44:50
  TRACK 10 AUDIO
    TITLE "Song Sung Blue"
    INDEX 00 32:48:57
    INDEX 01 32:50:57
  TRACK 11 AUDIO
    TITLE "Sooliamon"
    INDEX 00 36:04:72
    INDEX 01 36:06:72
  TRACK 12 AUDIO
    TITLE "I Am .. I Said"
    INDEX 00 40:24:20
    INDEX 01 40:26:20
Код:
-----------------------
DON'T MODIFY THIS FILE
-----------------------
PERFORMER: auCDtect Task Manager, ver. 1.5.1RC6 build 1.5.1.7
Copyright (c) 2008-2010 y-soft. All rights reserved
[url=http://y-soft.org]http://y-soft.org[/url]
ANALYZER: auCDtect: CD records authenticity detector, version 0.8.2
Copyright (c) 2004 Oleg Berngardt. All rights reserved.
Copyright (c) 2004 Alexander Djourik. All rights reserved.
FILE: Neil Diamond - His 12 Greatest Hits.ape
  Size: -1 Hash: 7E9D5D84335B35EE91EA76260EB03AA0 Accuracy: -m0
  Conclusion: CDDA 100%
  Signature: 198B95C2A262CF3680FE7B69BFA3576013A92C9B
Доп. информация: Сборник лучших песен исполнителя 1966 - 1972 годов.
Правила, инструкции, FAQ!!!
Торрент  Добавлен [26 мар 2019, 20:36] Скачать торрент Магнет ссылка
Скачать торрент
[ Размер 11.1 КБ / Просмотров 2 ]

Статус
Проверен 
 
Размер  257.76 МБ
Приватный: Нет (DHT включён)
.torrent скачан  1
 


     Отправить личное сообщение
   
Страница 1 из 1
Показать сообщения за:  Поле сортировки  
Начать новую тему Ответить на тему


Сейчас этот форум просматривают: нет зарегистрированных пользователей и гости: 0


Вы не можете начинать темы
Вы не можете отвечать на сообщения
Вы не можете редактировать свои сообщения
Вы не можете удалять свои сообщения
Вы не можете добавлять вложения

Перейти:  
cron