Начать новую тему Ответить на тему
Статистика раздачи
Размер: 5.07 ГБ | Добавлен: 26 мар 2019, 20:43 | Скачали: 0
Сидеров: 0  [0 байт/сек]    Личеров: 0  [0 байт/сек]
Пред. тема | След. тема 

Автор
Сообщение

СообщениеДобавлено: 26 мар 2019, 20:43 

Ответить с цитатой 

Momus - 13 альбомов (торрент перезалит 28.06.10)
Жанр: Pop-Rock & Soft Rock
Год выпуска диска: 2008
Аудио кодек: APE
Тип рипа: image+.cue
Битрейт аудио: lossless
Продолжительность: 15 CD
Трэклист:
#777Lucky Like St. Sebastian 3:19
The Lesson Of Sodom (According To Lot) 3:43
John The Baptist Jones 3:12
King Solomon's Song And Mine 3:17
Little Lord Obedience 5:13
The Day The Circus Came To Town 3:25
The Rape Of Lucretia 4:57
Paper Wraps Rock 3:58
Rules Of The Game Of Quoits 4:03
"Nicky" 4:16
Don't Leave 3:35
See A Friend In Tears 4:12
Код:
Exact Audio Copy V0.99 prebeta 5 from 4. May 2009
Отчёт EAC об извлечении, выполненном 27. января 2010, 13:37
Momus / Circus Maximus
Дисковод: MATSHITADVD-RAM UJ-852S   Adapter: 0  ID: 0
Режим чтения                 : Достоверность
Использование точного потока : Да
Отключение кэша аудио        : Да
Использование указателей C2  : Нет
Коррекция смещения при чтении                     : 102
Способность читать области Lead-in и Lead-out     : Нет
Заполнение пропущенных сэмплов тишиной            : Да
Удаление блоков с тишиной в начале и конце        : Нет
При вычислениях CRC использовались нулевые сэмплы : Да
Интерфейс                                         : Встроенный Win32-интерфейс для Win NT/2000
Выходной формат : Внутренние WAV-операции
Формат сэмплов  : 44.100 Гц; 16 бит; стерео
TOC извлечённого CD
     Трек |   Старт  | Длительность | Начальный сектор | Конечный сектор
    ---------------------------------------------------------------------
       1  |  0:00.00 |    3:21.71   |           0      |      15145
       2  |  3:21.71 |    3:45.48   |       15146      |      32068
       3  |  7:07.44 |    3:11.11   |       32069      |      46404
       4  | 10:18.55 |    3:15.37   |       46405      |      61066
       5  | 13:34.17 |    5:08.73   |       61067      |      84239
       6  | 18:43.15 |    3:26.68   |       84240      |      99757
       7  | 22:10.08 |    4:57.32   |       99758      |     122064
       8  | 27:07.40 |    3:58.40   |      122065      |     139954
       9  | 31:06.05 |    4:00.73   |      139955      |     158027
Характеристики диапазона извлечения и сообщения об ошибках
Выбранный диапазон
     Имя файла D:\444444444\momus\Momus - Circus Maximus.wav
     Пиковый уровень 23.2 %
     Качество диапазона 100.0 %
     CRC копии 7D4034D3
     Копирование... OK
Ошибок не произошло
Конец отчёта
#7771 The Gatecrasher 4:55
2 Violets 4:56
3 Islington John 5:12
4 Three Wars 5:47
5 Flame Into Being 5:23
6 Situation Comedy Blues 3:49
7 Sex For The Disabled 4:51
8 Closer To You 7:28
Код:
Exact Audio Copy V0.99 prebeta 5 from 4. May 2009
Отчёт EAC об извлечении, выполненном 29. января 2010, 16:16
Momus / The Poison Boyfriend
Дисковод: MATSHITADVD-RAM UJ-852S   Adapter: 0  ID: 0
Режим чтения                 : Достоверность
Использование точного потока : Да
Отключение кэша аудио        : Да
Использование указателей C2  : Нет
Коррекция смещения при чтении                     : 102
Способность читать области Lead-in и Lead-out     : Нет
Заполнение пропущенных сэмплов тишиной            : Да
Удаление блоков с тишиной в начале и конце        : Нет
При вычислениях CRC использовались нулевые сэмплы : Да
Интерфейс                                         : Встроенный Win32-интерфейс для Win NT/2000
Выходной формат : Внутренние WAV-операции
Формат сэмплов  : 44.100 Гц; 16 бит; стерео
TOC извлечённого CD
     Трек |   Старт  | Длительность | Начальный сектор | Конечный сектор
    ---------------------------------------------------------------------
       1  |  0:00.00 |    4:54.27   |           0      |      22076
       2  |  4:54.27 |    4:55.34   |       22077      |      44235
       3  |  9:49.61 |    5:11.50   |       44236      |      67610
       4  | 15:01.36 |    5:47.18   |       67611      |      93653
       5  | 20:48.54 |    5:23.10   |       93654      |     117888
       6  | 26:11.64 |    3:49.39   |      117889      |     135102
       7  | 30:01.28 |    4:50.61   |      135103      |     156913
       8  | 34:52.14 |    7:27.13   |      156914      |     190451
Характеристики диапазона извлечения и сообщения об ошибках
Выбранный диапазон
#7771 A Complete History Of Sexual Jealousy 6:07
2 The Guitar Lesson 3:55
3 Closer To You 7:25
4 The Homosexual 5:27
5 The Charms Of Innocence 6:54
6 Lucky Like St Sebastian 3:12
7 I Was A Maoist Intellectual 3:51
8 Lifestyles Of The Rich & Famous 3:08
9 The Angels Are Voyeurs 4:12
10 Hotel Marquis de Sade 4:18
11 The Gatecrasher 6:28
12 The Hairstyle Of The Devil 5:37
13 Bishonen 8:56
14 Angel's Reprise 1:15
15 Sexual Jealousy Reprise 2:10
16 Guitar Reprise 1:46
17 Closer To You Reprise 1:04
Код:
Exact Audio Copy V0.99 prebeta 5 from 4. May 2009
Отчёт EAC об извлечении, выполненном 28. января 2010, 17:47
Momus / Slender Sherbert
Дисковод: MATSHITADVD-RAM UJ-852S   Adapter: 0  ID: 0
Режим чтения                 : Достоверность
Использование точного потока : Да
Отключение кэша аудио        : Да
Использование указателей C2  : Нет
Коррекция смещения при чтении                     : 102
Способность читать области Lead-in и Lead-out     : Нет
Заполнение пропущенных сэмплов тишиной            : Да
Удаление блоков с тишиной в начале и конце        : Нет
При вычислениях CRC использовались нулевые сэмплы : Да
Интерфейс                                         : Встроенный Win32-интерфейс для Win NT/2000
Выходной формат : Внутренние WAV-операции
Формат сэмплов  : 44.100 Гц; 16 бит; стерео
TOC извлечённого CD
     Трек |   Старт  | Длительность | Начальный сектор | Конечный сектор
    ---------------------------------------------------------------------
       1  |  0:00.00 |    6:07.70   |           0      |      27594
       2  |  6:07.70 |    3:55.60   |       27595      |      45279
       3  | 10:03.55 |    7:25.53   |       45280      |      78707
       4  | 17:29.33 |    5:27.17   |       78708      |     103249
       5  | 22:56.50 |    6:54.60   |      103250      |     134359
       6  | 29:51.35 |    3:12.08   |      134360      |     148767
       7  | 33:03.43 |    3:51.12   |      148768      |     166104
       8  | 36:54.55 |    3:08.00   |      166105      |     180204
       9  | 40:02.55 |    4:12.10   |      180205      |     199114
      10  | 44:14.65 |    4:18.68   |      199115      |     218532
      11  | 48:33.58 |    6:28.25   |      218533      |     247657
      12  | 55:02.08 |    5:37.60   |      247658      |     272992
      13  | 60:39.68 |    8:56.65   |      272993      |     313257
      14  | 69:36.58 |    1:15.57   |      313258      |     318939
      15  | 70:52.40 |    2:10.73   |      318940      |     328762
      16  | 73:03.38 |    1:46.37   |      328763      |     336749
      17  | 74:50.00 |    1:04.50   |      336750      |     341599
Характеристики диапазона извлечения и сообщения об ошибках
Выбранный диапазон
     Имя файла D:\444444444\momus\Slender Sherbert\Momus - Slender Sherbert.wav
     Пиковый уровень 86.6 %
     Качество диапазона 100.0 %
     CRC копии 049FB09A
     Копирование... OK
Ошибок не произошло
Конец отчёта
#777I Am A Kitten 2:48
Vogue Bambini 3:05
The Poisoners 3:13
Nikon 2 3:29
Giapponese A Roma 3:23
Paolo 5:05
The End Of History 4:07
London 1888 4:30
Streetlamp Soliloquy 4:18
An Inflatable Doll 2:49
Saved 3:40
Someone 3:33
Howard Hughes 3:16
Three Beasts 3:57
Good Morning World 3:33
Germania 3:23
The Girl With No Body 2:49
Radiant Night 4:42
Orgasm Addict 4:23
Nobody 4:12
Код:
Exact Audio Copy V0.99 prebeta 5 from 4. May 2009
Отчёт EAC об извлечении, выполненном 27. января 2010, 15:06
Momus / 20 Vodka Jellies
Дисковод: MATSHITADVD-RAM UJ-852S   Adapter: 0  ID: 0
Режим чтения                 : Достоверность
Использование точного потока : Да
Отключение кэша аудио        : Да
Использование указателей C2  : Нет
Коррекция смещения при чтении                     : 102
Способность читать области Lead-in и Lead-out     : Нет
Заполнение пропущенных сэмплов тишиной            : Да
Удаление блоков с тишиной в начале и конце        : Нет
При вычислениях CRC использовались нулевые сэмплы : Да
Интерфейс                                         : Встроенный Win32-интерфейс для Win NT/2000
Выходной формат : Внутренние WAV-операции
Формат сэмплов  : 44.100 Гц; 16 бит; стерео
TOC извлечённого CD
     Трек |   Старт  | Длительность | Начальный сектор | Конечный сектор
    ---------------------------------------------------------------------
       1  |  0:00.00 |    2:48.13   |           0      |      12612
       2  |  2:48.13 |    3:05.62   |       12613      |      26549
       3  |  5:54.00 |    3:13.00   |       26550      |      41024
       4  |  9:07.00 |    3:29.05   |       41025      |      56704
       5  | 12:36.05 |    3:23.58   |       56705      |      71987
       6  | 15:59.63 |    5:05.32   |       71988      |      94894
       7  | 21:05.20 |    4:07.60   |       94895      |     113479
       8  | 25:13.05 |    4:30.30   |      113480      |     133759
       9  | 29:43.35 |    4:18.38   |      133760      |     153147
      10  | 34:01.73 |    2:49.45   |      153148      |     165867
      11  | 36:51.43 |    3:40.35   |      165868      |     182402
      12  | 40:32.03 |    3:33.12   |      182403      |     198389
      13  | 44:05.15 |    3:16.48   |      198390      |     213137
      14  | 47:21.63 |    3:57.55   |      213138      |     230967
      15  | 51:19.43 |    3:33.67   |      230968      |     247009
      16  | 54:53.35 |    3:23.70   |      247010      |     262304
      17  | 58:17.30 |    2:49.53   |      262305      |     275032
      18  | 61:07.08 |    4:42.00   |      275033      |     296182
      19  | 65:49.08 |    4:23.20   |      296183      |     315927
      20  | 70:12.28 |    4:12.50   |      315928      |     334877
Характеристики диапазона извлечения и сообщения об ошибках
Выбранный диапазон
     Имя файла D:\444444444\momus\20 Vodka Jellies\Momus - 20 Vodka Jellies.wav
     Пиковый уровень 96.8 %
     Качество диапазона 100.0 %
     CRC копии BCA93169
     Копирование... OK
Ошибок не произошло
Конец отчёта
#777Ping Pong With Hong Kong King Kong (A Sing Song)0:49
His Majesty The Baby 4:23
My Pervert Doppelganger 4:32
I Want You, But I Don't Need You 4:46
Professor Shaftenberg 3:33
Shoesize Of The Angel 6:33
The Age Of Information 4:37
The Sensation Of Orgasm 3:52
Anthem Of Shibuya 4:00
Lolitapop Dollhouse 4:08
Tamagotchi Press Officer 2:20
Space Jews 3:58
My Kindly Friend The Censor 3:53
The Animal That Desires 7:05
How To Get - And Stay - Famous 7:36
2PM 5:56
Код:
Exact Audio Copy V0.99 prebeta 5 from 4. May 2009
Отчёт EAC об извлечении, выполненном 29. января 2010, 15:20
Momus / Ping Pong
Дисковод: MATSHITADVD-RAM UJ-852S   Adapter: 0  ID: 0
Режим чтения                 : Достоверность
Использование точного потока : Да
Отключение кэша аудио        : Да
Использование указателей C2  : Нет
Коррекция смещения при чтении                     : 102
Способность читать области Lead-in и Lead-out     : Нет
Заполнение пропущенных сэмплов тишиной            : Да
Удаление блоков с тишиной в начале и конце        : Нет
При вычислениях CRC использовались нулевые сэмплы : Да
Интерфейс                                         : Встроенный Win32-интерфейс для Win NT/2000
Выходной формат : Внутренние WAV-операции
Формат сэмплов  : 44.100 Гц; 16 бит; стерео
TOC извлечённого CD
     Трек |   Старт  | Длительность | Начальный сектор | Конечный сектор
    ---------------------------------------------------------------------
       1  |  0:00.00 |    0:49.74   |           0      |       3748
       2  |  0:49.74 |    4:22.33   |        3749      |      23431
       3  |  5:12.32 |    4:31.49   |       23432      |      43805
       4  |  9:44.06 |    4:45.69   |       43806      |      65249
       5  | 14:30.00 |    3:33.60   |       65250      |      81284
       6  | 18:03.60 |    6:32.59   |       81285      |     110743
       7  | 24:36.44 |    4:36.56   |      110744      |     131499
       8  | 29:13.25 |    3:51.50   |      131500      |     148874
       9  | 33:05.00 |    4:00.21   |      148875      |     166895
      10  | 37:05.21 |    4:08.46   |      166896      |     185541
      11  | 41:13.67 |    2:19.16   |      185542      |     195982
      12  | 43:33.08 |    3:58.32   |      195983      |     213864
      13  | 47:31.40 |    3:52.64   |      213865      |     231328
      14  | 51:24.29 |    7:04.60   |      231329      |     263188
      15  | 58:29.14 |    7:36.01   |      263189      |     297389
      16  | 66:05.15 |    5:56.38   |      297390      |     324127
Характеристики диапазона извлечения и сообщения об ошибках
Выбранный диапазон
     Имя файла D:\444444444\momus\Ping Pong\Momus - Ping Pong.wav
     Пиковый уровень 99.6 %
     Качество диапазона 100.0 %
     CRC копии 28CC9E4B
     Копирование... OK
Ошибок не произошло
Конец отчёта
#777Old Friend, New Flame 2:05
MC Escher 3:31
Who Is Mr Jones? 2:09
Harry K-Tel 2:05
Lucretia Borgia 2:50
How To Spot An Invert 1:42
Everyone I Have Ever Slept With 2:43
Born To Be Adored 4:14
Coming In A Girls Mouth 1:34
What Are You Wearing? 5:32
The New Decameron 1:43
The Symphonies Of Beethoven 4:13
Tragedy And Farce 2:38
Miss X, An Ex-Lover 2:09
A White Oriental Flower / I Can See Japan 4:49
Old Friend, New Flame (Karaoke Version) 2:06
Tragedy And Farce (Karaoke Version) 2:39
The New Decameron (Karaoke Version) 1:46
Coming In A Girl's Mouth (Karaoke Version) 1:36
Miss X, An Ex-Lover (Karaoke Version) 2:10
Harry K-Tel (Karaoke Version) 2:07
Who Is Mr Jones? (Karaoke Version) 2:20
How To Spot An Invert (Karaoke Version) 1:44
The Symphonies Of Beethoven (Karaoke Version) 4:07
Код:
Exact Audio Copy V0.99 prebeta 5 from 4. May 2009
Отчёт EAC об извлечении, выполненном 28. января 2010, 16:26
Momus / The Little Red Songbook
Дисковод: MATSHITADVD-RAM UJ-852S   Adapter: 0  ID: 0
Режим чтения                 : Достоверность
Использование точного потока : Да
Отключение кэша аудио        : Да
Использование указателей C2  : Нет
Коррекция смещения при чтении                     : 102
Способность читать области Lead-in и Lead-out     : Нет
Заполнение пропущенных сэмплов тишиной            : Да
Удаление блоков с тишиной в начале и конце        : Нет
При вычислениях CRC использовались нулевые сэмплы : Да
Интерфейс                                         : Встроенный Win32-интерфейс для Win NT/2000
Выходной формат : Внутренние WAV-операции
Формат сэмплов  : 44.100 Гц; 16 бит; стерео
TOC извлечённого CD
     Трек |   Старт  | Длительность | Начальный сектор | Конечный сектор
    ---------------------------------------------------------------------
       1  |  0:00.00 |    2:05.30   |           0      |       9404
       2  |  2:05.30 |    3:31.45   |        9405      |      25274
       3  |  5:37.00 |    2:09.22   |       25275      |      34971
       4  |  7:46.22 |    2:05.40   |       34972      |      44386
       5  |  9:51.62 |    2:50.30   |       44387      |      57166
       6  | 12:42.17 |    1:42.05   |       57167      |      64821
       7  | 14:24.22 |    2:43.58   |       64822      |      77104
       8  | 17:08.05 |    4:14.55   |       77105      |      96209
       9  | 21:22.60 |    1:34.15   |       96210      |     103274
      10  | 22:57.00 |    5:32.22   |      103275      |     128196
      11  | 28:29.22 |    1:43.18   |      128197      |     135939
      12  | 30:12.40 |    4:13.40   |      135940      |     154954
      13  | 34:26.05 |    2:38.15   |      154955      |     166819
      14  | 37:04.20 |    2:09.22   |      166820      |     176516
      15  | 39:13.42 |    4:49.50   |      176517      |     198241
      16  | 44:03.17 |    2:06.60   |      198242      |     207751
      17  | 46:10.02 |    2:39.05   |      207752      |     219681
      18  | 48:49.07 |    1:46.23   |      219682      |     227654
      19  | 50:35.30 |    1:36.30   |      227655      |     234884
      20  | 52:11.60 |    2:10.52   |      234885      |     244686
      21  | 54:22.37 |    2:07.10   |      244687      |     254221
      22  | 56:29.47 |    2:20.15   |      254222      |     264736
      23  | 58:49.62 |    1:44.48   |      264737      |     272584
      24  | 60:34.35 |    4:07.10   |      272585      |     291119
Характеристики диапазона извлечения и сообщения об ошибках
Выбранный диапазон
     Имя файла D:\444444444\momus\The Little Red Songbook\Momus - The Little Red Songbook.wav
     Пиковый уровень 87.8 %
     Качество диапазона 100.0 %
     CRC копии 1EB5F026
     Копирование... OK
Ошибок не произошло
#7771-1 The Minus 5 3:34
1-2 Akiko Masuda 2:48
1-3 Steven Zeeland 3:33
1-4 Mika Akutsu 3:06
1-5 Stephanie Pappas 3:41
1-6 Kokoru Hirai 3:07
1-7 Stefano Zarelli 2:49
1-8 Paolo Rumi 4:23
1-9 Natsuko Tayama 2:27
1-10 Girlie Action 2:15
1-11 Mai Noda 3:07
1-12 Robert Dye 3:17
1-13 Florence Manlik 2:17
1-14 Adam Green 3:33
1-15 Maf 2:32
1-16 Other Music 2:07
1-17 Tinnitus 2:06
1-18 3D Corporation 2:44
1-19 Miles Franklin 3:36
2-1 Shawn Krueger 3:35
2-2 Jeff Koons 3:42
2-3 Noah Brill 2:56
2-4 Team Clermont 3:25
2-5 Brent Busboom 3:19
2-6 Indiepop List 5:22
2-7 Keigo Oyamada 3:06
2-8 Minty Fresh 1:55
2-9 Milton Jacobson 3:05
2-10 Reckless Records 2:10
2-11 Karin Komoto 3:07
2-12 New Flame, Same Old Story 2:31
2-13 Not Intended For Children 1:52
2-14 Coming On An Intern's Dress 1:29
2-15 Nicky My Friend 2:06
2-16 Mr Jones 2:19
2-17 The Taste Of Pink Champagne 2:07
2-18 Onan The Barbarian 1:33
2-19 Suggestion To Jealous Men 1:43
2-20 A Twenty-One Minute Interview With Momus21:13
Код:
Exact Audio Copy V0.99 prebeta 5 from 4. May 2009
Отчёт EAC об извлечении, выполненном 28. января 2010, 19:04
Momus / Stars Forever (Disc 1)
Дисковод: MATSHITADVD-RAM UJ-852S   Adapter: 0  ID: 0
Режим чтения                 : Достоверность
Использование точного потока : Да
Отключение кэша аудио        : Да
Использование указателей C2  : Нет
Коррекция смещения при чтении                     : 102
Способность читать области Lead-in и Lead-out     : Нет
Заполнение пропущенных сэмплов тишиной            : Да
Удаление блоков с тишиной в начале и конце        : Нет
При вычислениях CRC использовались нулевые сэмплы : Да
Интерфейс                                         : Встроенный Win32-интерфейс для Win NT/2000
Выходной формат : Внутренние WAV-операции
Формат сэмплов  : 44.100 Гц; 16 бит; стерео
TOC извлечённого CD
     Трек |   Старт  | Длительность | Начальный сектор | Конечный сектор
    ---------------------------------------------------------------------
       1  |  0:00.00 |    3:34.64   |           0      |      16113
       2  |  3:34.64 |    2:48.36   |       16114      |      28749
       3  |  6:23.25 |    3:33.55   |       28750      |      44779
       4  |  9:57.05 |    3:06.06   |       44780      |      58735
       5  | 13:03.11 |    3:41.01   |       58736      |      75311
       6  | 16:44.12 |    3:07.07   |       75312      |      89343
       7  | 19:51.19 |    2:49.66   |       89344      |     102084
       8  | 22:41.10 |    4:23.67   |      102085      |     121876
       9  | 27:05.02 |    2:27.55   |      121877      |     132956
      10  | 29:32.57 |    2:15.65   |      132957      |     143146
      11  | 31:48.47 |    3:07.10   |      143147      |     157181
      12  | 34:55.57 |    3:17.24   |      157182      |     171980
      13  | 38:13.06 |    2:17.16   |      171981      |     182271
      14  | 40:30.22 |    3:33.18   |      182272      |     198264
      15  | 44:03.40 |    2:32.64   |      198265      |     209728
      16  | 46:36.29 |    2:07.56   |      209729      |     219309
      17  | 48:44.10 |    2:06.18   |      219310      |     228777
      18  | 50:50.28 |    2:44.48   |      228778      |     241125
      19  | 53:35.01 |    3:36.70   |      241126      |     257395
Характеристики диапазона извлечения и сообщения об ошибках
Выбранный диапазон
     Имя файла D:\444444444\momus\Stars Forever\Momus - Stars Forever (Disc 1).wav
     Пиковый уровень 100.0 % Качество диапазона 100.0 %
     CRC копии A3818BE9
     Копирование... OK
Ошибок не произошло
Конец отчёта
Код:
Exact Audio Copy V0.99 prebeta 5 from 4. May 2009
Отчёт EAC об извлечении, выполненном 28. января 2010, 20:06
Momus / Stars Forever (Disc 2)
Дисковод: MATSHITADVD-RAM UJ-852S   Adapter: 0  ID: 0
Режим чтения                 : Достоверность
Использование точного потока : Да
Отключение кэша аудио        : Да
Использование указателей C2  : Нет
Коррекция смещения при чтении                     : 102
Способность читать области Lead-in и Lead-out     : Нет
Заполнение пропущенных сэмплов тишиной            : Да
Удаление блоков с тишиной в начале и конце        : Нет
При вычислениях CRC использовались нулевые сэмплы : Да
Интерфейс                                         : Встроенный Win32-интерфейс для Win NT/2000
Выходной формат : Внутренние WAV-операции
Формат сэмплов  : 44.100 Гц; 16 бит; стерео
TOC извлечённого CD
     Трек |   Старт  | Длительность | Начальный сектор | Конечный сектор
    ---------------------------------------------------------------------
       1  |  0:00.00 |    3:35.41   |           0      |      16165
       2  |  3:35.41 |    3:42.56   |       16166      |      32871
       3  |  7:18.22 |    2:56.24   |       32872      |      46095
       4  | 10:14.46 |    3:25.51   |       46096      |      61521
       5  | 13:40.22 |    3:19.55   |       61522      |      76501
       6  | 17:00.02 |    5:22.00   |       76502      |     100651
       7  | 22:22.02 |    3:06.44   |      100652      |     114645
       8  | 25:28.46 |    1:55.35   |      114646      |     123305
       9  | 27:24.06 |    3:05.57   |      123306      |     137237
      10  | 30:29.63 |    2:10.12   |      137238      |     146999
      11  | 32:40.00 |    3:07.29   |      147000      |     161053
      12  | 35:47.29 |    2:16.26   |      161054      |     171279
      13  | 38:03.55 |    1:53.03   |      171280      |     179757
      14  | 39:56.58 |    1:28.07   |      179758      |     186364
      15  | 41:24.65 |    2:05.52   |      186365      |     195791
      16  | 43:30.42 |    2:18.21   |      195792      |     206162
      17  | 45:48.63 |    2:07.58   |      206163      |     215745
      18  | 47:56.46 |    1:32.36   |      215746      |     222681
      19  | 49:29.07 |    1:38.10   |      222682      |     230041
      20  | 51:07.17 |   21:13.52   |      230042      |     325568
Характеристики диапазона извлечения и сообщения об ошибках
Выбранный диапазон
     Имя файла D:\444444444\momus\Stars Forever\Momus - Stars Forever (Disc 2).wav
     Пиковый уровень 100.0 %
     Качество диапазона 100.0 %
     CRC копии 41030127
     Копирование... OK
Ошибок не произошло
Конец отчёта
#777Appalachia 2:08
Smooth Folk Singer 2:55
Mountain Music 2:14
Simple Men 2:32
Finnegan The Folk Hero 3:24
Protestant Art 3:37
U.S. Knitting 3:46
Jarre In Hicksville 2:44
Tape Recorder Man 3:47
Little Apples 3:06
Robocowboys 3:12
Psychopathia Sexualis 3:55
Folk Me Amadeus 4:12
Handheld 1:43
The Penis Song 3:13
Heliogabalus 2:55
Going For A Walk With A Line 3:36
The Lady Of Shalott 3:58
Mistaken Memories Of Medieval Manhattan 4:25
Pygmalism 5:48
Код:
Exact Audio Copy V0.99 prebeta 5 from 4. May 2009
Отчёт EAC об извлечении, выполненном 27. января 2010, 17:16
Momus / Folktronic
Дисковод: MATSHITADVD-RAM UJ-852S   Adapter: 0  ID: 0
Режим чтения                 : Достоверность
Использование точного потока : Да
Отключение кэша аудио        : Да
Использование указателей C2  : Нет
Коррекция смещения при чтении                     : 102
Способность читать области Lead-in и Lead-out     : Нет
Заполнение пропущенных сэмплов тишиной            : Да
Удаление блоков с тишиной в начале и конце        : Нет
При вычислениях CRC использовались нулевые сэмплы : Да
Интерфейс                                         : Встроенный Win32-интерфейс для Win NT/2000
Выходной формат : Внутренние WAV-операции
Формат сэмплов  : 44.100 Гц; 16 бит; стерео
TOC извлечённого CD
     Трек |   Старт  | Длительность | Начальный сектор | Конечный сектор
    ---------------------------------------------------------------------
       1  |  0:00.00 |    2:08.51   |           0      |       9650
       2  |  2:08.51 |    2:55.26   |        9651      |      22801
       3  |  5:04.02 |    2:14.50   |       22802      |      32901
       4  |  7:18.52 |    2:32.52   |       32902      |      44353
       5  |  9:51.29 |    3:24.64   |       44354      |      59717
       6  | 13:16.18 |    3:37.13   |       59718      |      76005
       7  | 16:53.31 |    3:46.46   |       76006      |      93001
       8  | 20:40.02 |    2:44.65   |       93002      |     105366
       9  | 23:24.67 |    3:47.29   |      105367      |     122420
      10  | 27:12.21 |    3:06.16   |      122421      |     136386
      11  | 30:18.37 |    3:12.07   |      136387      |     150793
      12  | 33:30.44 |    3:55.42   |      150794      |     168460
      13  | 37:26.11 |    4:12.02   |      168461      |     187362
      14  | 41:38.13 |    1:43.43   |      187363      |     195130
      15  | 43:21.56 |    3:13.29   |      195131      |     209634
      16  | 46:35.10 |    2:55.67   |      209635      |     222826
      17  | 49:31.02 |    3:36.09   |      222827      |     239035
      18  | 53:07.11 |    3:58.51   |      239036      |     256936
      19  | 57:05.62 |    4:25.39   |      256937      |     276850
      20  | 61:31.26 |    5:48.27   |      276851      |     302977
Характеристики диапазона извлечения и сообщения об ошибках
Выбранный диапазон
     Имя файла D:\444444444\momus\Folktronic\Momus - Folktronic.wav
     Пиковый уровень 100.0 %
     Качество диапазона 100.0 %
     CRC копии 601B5197
     Копирование... OK
Ошибок не произошло
Конец отчёта
#777The Youthful Hero Doomed To Fall Like Blossom, 1987-1989
1-1 Bishonen 7:38
1-2 The Gatecrasher 4:59
1-3 Murderers, The Hope Of Women 5:17
1-4 Love On Ice 3:51
1-5 The Homosexual 4:42
1-6 How Do You Find My Sister? 5:14
1-7 A Complete History Of Sexual Jealousy (Parts 17-24) 5:35
1-8 The Hairstyle Of The Devil 4:27
1-9 Shaftesbury Avenue 5:56
1-10 The Guitar Lesson 3:49
1-11 In The Sanitorium 5:03
1-12 The Charm Of Innocence 6:32
1-13 Closer To You 7:32
A Machine That Let You Feel All His Emotion, 1990-1993
2-1 Hippopotamomus 4:21
2-2 Ventriloquists And Dolls 3:54
2-3 Monsters Of Love 4:19
2-4 A Monkey For Sallie 2:43
2-5 Bluestocking 3:09
2-6 Morality Is Vanity 3:22
2-7 Platinum 4:52
2-8 Cibachrome Blue 4:36
2-9 Rhetoric 5:06
2-10 Summer Holiday 1999 3:15
2-11 Spacewalk 3:50
2-12 Voyager 5:49
2-13 Enlightenment 4:26
2-14 Song In Contravention 4:35
Код:
Exact Audio Copy V0.99 prebeta 5 from 4. May 2009
Отчёт EAC об извлечении, выполненном 27. января 2010, 19:37
Momus / Forbidden Software Timemachine
Дисковод: MATSHITADVD-RAM UJ-852S   Adapter: 0  ID: 0
Режим чтения                 : Достоверность
Использование точного потока : Да
Отключение кэша аудио        : Да
Использование указателей C2  : Нет
Коррекция смещения при чтении                     : 102
Способность читать области Lead-in и Lead-out     : Нет
Заполнение пропущенных сэмплов тишиной            : Да
Удаление блоков с тишиной в начале и конце        : Нет
При вычислениях CRC использовались нулевые сэмплы : Да
Интерфейс                                         : Встроенный Win32-интерфейс для Win NT/2000
Выходной формат : Внутренние WAV-операции
Формат сэмплов  : 44.100 Гц; 16 бит; стерео
TOC извлечённого CD
     Трек |   Старт  | Длительность | Начальный сектор | Конечный сектор
    ---------------------------------------------------------------------
       1  |  0:00.00 |    7:38.20   |           0      |      34369
       2  |  7:38.20 |    4:59.43   |       34370      |      56837
       3  | 12:37.63 |    5:17.59   |       56838      |      80671
       4  | 17:55.47 |    3:51.26   |       80672      |      98022
       5  | 21:46.73 |    4:42.23   |       98023      |     119195
       6  | 26:29.21 |    5:14.27   |      119196      |     142772
       7  | 31:43.48 |    5:35.45   |      142773      |     167942
       8  | 37:19.18 |    4:27.63   |      167943      |     188030
       9  | 41:47.06 |    5:56.52   |      188031      |     214782
      10  | 47:43.58 |    3:49.58   |      214783      |     232015
      11  | 51:33.41 |    5:03.38   |      232016      |     254778
      12  | 56:37.04 |    6:32.68   |      254779      |     284246
      13  | 63:09.72 |    7:32.26   |      284247      |     318172
Характеристики диапазона извлечения и сообщения об ошибках
Выбранный диапазон
     Имя файла D:\444444444\momus\Forbidden Software Timemachine\1\Momus - Forbidden Software Timemachine.wav
     Пиковый уровень 91.1 %
     Качество диапазона 100.0 %
     CRC копии 06D1D47B
     Копирование... OK
Ошибок не произошло
Конец отчёта
Код:
Exact Audio Copy V0.99 prebeta 5 from 4. May 2009
Отчёт EAC об извлечении, выполненном 27. января 2010, 20:53
Momus / Forbidden Software Timemachine
Дисковод: MATSHITADVD-RAM UJ-852S   Adapter: 0  ID: 0
Режим чтения                 : Достоверность
Использование точного потока : Да
Отключение кэша аудио        : Да
Использование указателей C2  : Нет
Коррекция смещения при чтении                     : 102
Способность читать области Lead-in и Lead-out     : Нет
Заполнение пропущенных сэмплов тишиной            : Да
Удаление блоков с тишиной в начале и конце        : Нет
При вычислениях CRC использовались нулевые сэмплы : Да
Интерфейс                                         : Встроенный Win32-интерфейс для Win NT/2000
Выходной формат : Внутренние WAV-операции
Формат сэмплов  : 44.100 Гц; 16 бит; стерео
TOC извлечённого CD
     Трек |   Старт  | Длительность | Начальный сектор | Конечный сектор
    ---------------------------------------------------------------------
       1  |  0:00.00 |    4:21.67   |           0      |      19641
       2  |  4:21.67 |    3:54.43   |       19642      |      37234
       3  |  8:16.35 |    4:19.45   |       37235      |      56704
       4  | 12:36.05 |    2:43.05   |       56705      |      68934
       5  | 15:19.10 |    3:09.17   |       68935      |      83126
       6  | 18:28.27 |    3:22.40   |       83127      |      98316
       7  | 21:50.67 |    4:52.33   |       98317      |     120249
       8  | 26:43.25 |    4:36.55   |      120250      |     141004
       9  | 31:20.05 |    5:06.31   |      141005      |     163985
      10  | 36:26.36 |    3:15.08   |      163986      |     178618
      11  | 39:41.44 |    3:50.26   |      178619      |     195894
      12  | 43:31.70 |    5:49.18   |      195895      |     222087
      13  | 49:21.13 |    4:26.25   |      222088      |     242062
      14  | 53:47.38 |    4:35.70   |      242063      |     262757
Характеристики диапазона извлечения и сообщения об ошибках
Выбранный диапазон
     Имя файла D:\444444444\momus\Forbidden Software Timemachine\2\Momus - Forbidden Software Timemachine.wav
     Пиковый уровень 100.0 %
     Качество диапазона 100.0 %
     CRC копии 74C9B5C8
     Копирование... OK
Ошибок не произошло
Конец отчёта
#777Spooky Kabuki 3:05
Is It Because I'm A Pirate? 3:26
Multiplying Love 1:29
Scottish Lips 2:59
My Sperm Is Not Your Enemy 2:23
Oskar Tennis Champion 4:10
A Little Schubert 3:37
The Laird Of Inversnecky 3:40
The Last Communist 5:01
Pierrot Lunaire 5:28
Beowulf (I Am Deformed) 4:29
Electrosexual Sewing Machine 3:51
A Lapdog 4:18
Lovely Tree 3:22
Palm Deathtop 3:20
The Ringtone Cycle 7:32
Код:
Exact Audio Copy V0.99 prebeta 5 from 4. May 2009
Отчёт EAC об извлечении, выполненном 27. января 2010, 22:06
Momus / Oskar Tennis Champion
Дисковод: MATSHITADVD-RAM UJ-852S   Adapter: 0  ID: 0
Режим чтения                 : Достоверность
Использование точного потока : Да
Отключение кэша аудио        : Да
Использование указателей C2  : Нет
Коррекция смещения при чтении                     : 102
Способность читать области Lead-in и Lead-out     : Нет
Заполнение пропущенных сэмплов тишиной            : Да
Удаление блоков с тишиной в начале и конце        : Нет
При вычислениях CRC использовались нулевые сэмплы : Да
Интерфейс                                         : Встроенный Win32-интерфейс для Win NT/2000
Выходной формат : Внутренние WAV-операции
Формат сэмплов  : 44.100 Гц; 16 бит; стерео
TOC извлечённого CD
     Трек |   Старт  | Длительность | Начальный сектор | Конечный сектор
    ---------------------------------------------------------------------
       1  |  0:00.00 |    3:05.44   |           0      |      13918
       2  |  3:05.44 |    3:26.54   |       13919      |      29422
       3  |  6:32.23 |    1:29.70   |       29423      |      36167
       4  |  8:02.18 |    2:59.49   |       36168      |      49641
       5  | 11:01.67 |    2:23.11   |       49642      |      60377
       6  | 13:25.03 |    4:10.39   |       60378      |      79166
       7  | 17:35.42 |    3:37.27   |       79167      |      95468
       8  | 21:12.69 |    3:40.14   |       95469      |     111982
       9  | 24:53.08 |    5:01.09   |      111983      |     134566
      10  | 29:54.17 |    5:28.16   |      134567      |     159182
      11  | 35:22.33 |    4:29.28   |      159183      |     179385
      12  | 39:51.61 |    3:51.11   |      179386      |     196721
      13  | 43:42.72 |    4:18.19   |      196722      |     216090
      14  | 48:01.16 |    3:22.09   |      216091      |     231249
      15  | 51:23.25 |    3:20.44   |      231250      |     246293
      16  | 54:43.69 |    1:00.00   |      246294      |     250793
      17  | 55:43.69 |    7:32.12   |      250794      |     284705
Характеристики диапазона извлечения и сообщения об ошибках
Выбранный диапазон
     Имя файла D:\444444444\momus\Oskar Tennis Champion\Momus - Oskar Tennis Champion.wav
     Пиковый уровень 100.0 %
     Качество диапазона 100.0 %
     CRC копии 0FA78F42
     Копирование... OK
Ошибок не произошло
Конец отчёта
#7771 Sempreverde 3:53
2 Life Of The Fields 5:49
3 Corkscrew King 5:26
4 Klaxon 3:52
5 Robin Hood 4:17
6 Lady Fancy Knickers 4:58
7 Lute Score 2:54
8 Belvedere 3:48
9 Your Fat Friend 4:02
10 Mr Ulysses 5:16
11 Water Song 4:49
12 Jesus In Furs 4:32
13 Bantam Boys 4:00
14 Cockle Pickers 7:56
15 The Artist Overwhelmed4:25
Код:
Exact Audio Copy V0.99 prebeta 5 from 4. May 2009
Exact Audio Copy V0.99 prebeta 5 from 4. May 2009
Отчёт EAC об извлечении, выполненном 28. июня 2010, 13:43
Momus / Otto Spooky
Дисковод: Optiarc DVD RW AD-7240S   Adapter: 3  ID: 0
Режим чтения                 : Достоверность
Использование точного потока : Да
Отключение кэша аудио        : Да
Использование указателей C2  : Нет
Коррекция смещения при чтении                     : 48
Способность читать области Lead-in и Lead-out     : Нет
Заполнение пропущенных сэмплов тишиной            : Да
Удаление блоков с тишиной в начале и конце        : Нет
При вычислениях CRC использовались нулевые сэмплы : Да
Интерфейс                                         : Встроенный Win32-интерфейс для Win NT/2000
Выходной формат : Внутренние WAV-операции
Формат сэмплов  : 44.100 Гц; 16 бит; стерео
TOC извлечённого CD
     Трек |   Старт  | Длительность | Начальный сектор | Конечный сектор
    ---------------------------------------------------------------------
       1  |  0:00.00 |    3:53.12   |           0      |      17486
       2  |  3:53.12 |    5:49.60   |       17487      |      43721
       3  |  9:42.72 |    5:26.00   |       43722      |      68171
       4  | 15:08.72 |    3:52.32   |       68172      |      85603
       5  | 19:01.29 |    4:17.33   |       85604      |     104911
       6  | 23:18.62 |    4:58.20   |      104912      |     127281
       7  | 28:17.07 |    2:54.65   |      127282      |     140396
       8  | 31:11.72 |    3:48.27   |      140397      |     157523
       9  | 35:00.24 |    4:02.43   |      157524      |     175716
      10  | 39:02.67 |    5:16.04   |      175717      |     199420
      11  | 44:18.71 |    4:49.32   |      199421      |     221127
      12  | 49:08.28 |    4:32.21   |      221128      |     241548
      13  | 53:40.49 |    4:00.60   |      241549      |     259608
      14  | 57:41.34 |    7:56.52   |      259609      |     295360
      15  | 65:38.11 |    4:25.52   |      295361      |     315287
Характеристики диапазона извлечения и сообщения об ошибках
Выбранный диапазон
     Имя файла D:\torrents\momus\Otto Spooky\Momus - Otto Spooky.wav
     Пиковый уровень 100.0 %
     Качество диапазона 100.0 %
     CRC копии 172CE7F0
     Копирование... OK
Ошибок не произошло
Конец отчёта
Конец отчёта
#7771 Fur Ming Felt Hunt 3:32
2 Black Earth Buzz 3:11
3 Go Fishing Willy 2:43
4 Spin Thread Annie 4:17
5 McKenzie Fling 1:54
6 Fingal Martin's Mistress 1:31
7 The Tailor Of Dunblane 3:28
8 Manty Kelin 1:45
9 A Spratch O' Thyme 4:55
10 Trilly Birthphone 2:32
11 Johnny Jump Up 1:23
12 Seakliff Kragg 2:32
13 Ossian May 1:57
Код:
Exact Audio Copy V0.99 prebeta 5 from 4. May 2009
Отчёт EAC об извлечении, выполненном 27. января 2010, 17:51
Momus and Anne Laplantine / Summerisle
Дисковод: MATSHITADVD-RAM UJ-852S   Adapter: 0  ID: 0
Режим чтения                 : Достоверность
Использование точного потока : Да
Отключение кэша аудио        : Да
Использование указателей C2  : Нет
Коррекция смещения при чтении                     : 102
Способность читать области Lead-in и Lead-out     : Нет
Заполнение пропущенных сэмплов тишиной            : Да
Удаление блоков с тишиной в начале и конце        : Нет
При вычислениях CRC использовались нулевые сэмплы : Да
Интерфейс                                         : Встроенный Win32-интерфейс для Win NT/2000
Выходной формат : Внутренние WAV-операции
Формат сэмплов  : 44.100 Гц; 16 бит; стерео
TOC извлечённого CD
     Трек |   Старт  | Длительность | Начальный сектор | Конечный сектор
    ---------------------------------------------------------------------
       1  |  0:00.00 |    3:32.30   |           0      |      15929
       2  |  3:32.30 |    3:11.15   |       15930      |      30269
       3  |  6:43.45 |    2:43.14   |       30270      |      42508
       4  |  9:26.59 |    4:17.25   |       42509      |      61808
       5  | 13:44.09 |    1:54.33   |       61809      |      70391
       6  | 15:38.42 |    1:31.38   |       70392      |      77254
       7  | 17:10.05 |    3:28.22   |       77255      |      92876
       8  | 20:38.27 |    1:45.31   |       92877      |     100782
       9  | 22:23.58 |    4:55.30   |      100783      |     122937
      10  | 27:19.13 |    2:32.51   |      122938      |     134388
      11  | 29:51.64 |    1:23.28   |      134389      |     140641
      12  | 31:15.17 |    2:32.49   |      140642      |     152090
      13  | 33:47.66 |    1:57.55   |      152091      |     160920
Характеристики диапазона извлечения и сообщения об ошибках
Выбранный диапазон
     Имя файла D:\444444444\momus\Summerisle\Momus and Anne Laplantine - Summerisle.wav
     Пиковый уровень 100.0 %
     Качество диапазона 100.0 %
     CRC копии 1C4B50FC
     Копирование... OK
Ошибок не произошло
Конец отчёта
#777Birocracy 2:59
Widow Twanky 3:12
Mr Proctor 2:37
Thatness And Thereness 3:09
Jahwise Hammer Of The Babylon King 3:42
The Next Time 2:54
The Cooper O' Fife 3:01
Ichabod Crane 3:14
Strewf! 2:46
Dracula 4:41
Goodiepal 3:37
Fade To White 3:33
The Mouth Organ 2:57
The Man You'll Never Be 5:31
The Vaudevillian 5:15
Код:
Exact Audio Copy V0.99 prebeta 5 from 4. May 2009
Отчёт EAC об извлечении, выполненном 29. января 2010, 17:12
Momus / Joemus
Дисковод: MATSHITADVD-RAM UJ-852S   Adapter: 0  ID: 0
Режим чтения                 : Достоверность
Использование точного потока : Да
Отключение кэша аудио        : Да
Использование указателей C2  : Нет
Коррекция смещения при чтении                     : 102
Способность читать области Lead-in и Lead-out     : Нет
Заполнение пропущенных сэмплов тишиной            : Да
Удаление блоков с тишиной в начале и конце        : Нет
При вычислениях CRC использовались нулевые сэмплы : Да
Интерфейс                                         : Встроенный Win32-интерфейс для Win NT/2000
Выходной формат : Внутренние WAV-операции
Формат сэмплов  : 44.100 Гц; 16 бит; стерео
TOC извлечённого CD
     Трек |   Старт  | Длительность | Начальный сектор | Конечный сектор
    ---------------------------------------------------------------------
       1  |  0:00.00 |    2:59.26   |           0      |      13450
       2  |  2:59.26 |    3:12.14   |       13451      |      27864
       3  |  6:11.40 |    2:36.51   |       27865      |      39615
       4  |  8:48.16 |    3:09.25   |       39616      |      53815
       5  | 11:57.41 |    3:41.40   |       53816      |      70430
       6  | 15:39.06 |    2:53.43   |       70431      |      83448
       7  | 18:32.49 |    3:00.71   |       83449      |      97019
       8  | 21:33.45 |    3:14.28   |       97020      |     111597
       9  | 24:47.73 |    2:46.11   |      111598      |     124058
      10  | 27:34.09 |    4:41.08   |      124059      |     145141
      11  | 32:15.17 |    3:36.64   |      145142      |     161405
      12  | 35:52.06 |    3:33.15   |      161406      |     177395
      13  | 39:25.21 |    2:56.74   |      177396      |     190669
      14  | 42:22.20 |    5:30.56   |      190670      |     215475
      15  | 47:53.01 |    5:14.48   |      215476      |     239073
Характеристики диапазона извлечения и сообщения об ошибках
Выбранный диапазон
     Имя файла D:\444444444\momus\Joemus\Momus - Joemus.wav
     Пиковый уровень 100.0 %
     Качество диапазона 100.0 %
     CRC копии C65784EC
     Копирование... OK
Ошибок не произошло
Конец отчёта
Правила, инструкции, FAQ!!!
Торрент  Добавлен [26 мар 2019, 20:43] Скачать торрент Магнет ссылка
Скачать торрент
[ Размер 35.68 КБ / Просмотров 1 ]

Статус
Проверен 
 
Размер  5.07 ГБ
Приватный: Нет (DHT включён)
.torrent скачан  0
 


     Отправить личное сообщение
   
Страница 1 из 1
Показать сообщения за:  Поле сортировки  
Начать новую тему Ответить на тему


Сейчас этот форум просматривают: нет зарегистрированных пользователей и гости: 0


Вы не можете начинать темы
Вы не можете отвечать на сообщения
Вы не можете редактировать свои сообщения
Вы не можете удалять свои сообщения
Вы не можете добавлять вложения

Перейти:  
cron