Начать новую тему Ответить на тему
Статистика раздачи
Размер: 329.6 МБ | Добавлен: 26 мар 2019, 19:42 | Скачали: 0
Сидеров: 0  [0 байт/сек]    Личеров: 0  [0 байт/сек]
Пред. тема | След. тема 

Автор
Сообщение

СообщениеДобавлено: 26 мар 2019, 19:42 

Ответить с цитатой 

Minute By Minute - Timewatch
Жанр: Pop-Rock, Soft-Rock
Носитель: CD
Год издания: 1989
Издатель (лейбл): Sky
Номер по каталогу: TCD 10077
Аудиокодек: FLAC (*.flac)
Тип рипа: image+.cue
Битрейт аудио: lossless
Продолжительность: 53:04
Rip by luckburz
Наличие сканов в содержимом раздачи: да
Треклист:
01. Don't Mess With Fire (4:11)
02. Long Hot Night (4:55)
03. Million Miles Away (4:43)
04. Short Avenue (5:29)
05. Go Back To Sleep (4:09)
06. Black & Blue (4:10)
07. I'll Be Back (4:24)
08. It'll Be Allright (4:34)
09. Tijuana Holiday (3:39)
10. Three Times Your Age (4:50)
11. Homesick (3:42)
12. Kathy's Love (4:19)
 
Код:
Exact Audio Copy V1.0 beta 3 from 29. August 2011
EAC extraction logfile from 17. September 2013, 21:19
Minute By Minute / Timewatch
Used drive  : PIONEER BD-RW   BDR-206   Adapter: 0  ID: 2
Read mode               : Secure
Utilize accurate stream : Yes
Defeat audio cache      : Yes
Make use of C2 pointers : No
Read offset correction                      : 667
Overread into Lead-In and Lead-Out          : No
Fill up missing offset samples with silence : Yes
Delete leading and trailing silent blocks   : No
Null samples used in CRC calculations       : Yes
Used interface                              : Native Win32 interface for Win NT & 2000
Used output format              : User Defined Encoder
Selected bitrate                : 1024 kBit/s
Quality                         : High
Add ID3 tag                     : Yes
Command line compressor         : C:\Program Files\FLAC\flac.exe
Additional command line options : -5 -T "Artist=%artist%" -T "Title=%title%" -T "Album=%albumtitle%" -T "Date=%year%" -T "Tracknumber=%tracknr%" -T "Genre=%genre%" %source% -o %dest%
TOC of the extracted CD
     Track |   Start  |  Length  | Start sector | End sector
    ---------------------------------------------------------
        1  |  0:00.00 |  4:11.15 |         0    |    18839
        2  |  4:11.15 |  4:55.35 |     18840    |    40999
        3  |  9:06.50 |  4:43.23 |     41000    |    62247
        4  | 13:49.73 |  5:28.55 |     62248    |    86902
        5  | 19:18.53 |  4:08.50 |     86903    |   105552
        6  | 23:27.28 |  4:09.47 |    105553    |   124274
        7  | 27:37.00 |  4:23.63 |    124275    |   144062
        8  | 32:00.63 |  4:33.50 |    144063    |   164587
        9  | 36:34.38 |  3:39.02 |    164588    |   181014
       10  | 40:13.40 |  4:49.40 |    181015    |   202729
       11  | 45:03.05 |  3:41.70 |    202730    |   219374
       12  | 48:45.00 |  4:19.28 |    219375    |   238827
Range status and errors
Selected range
     Filename F:\=== VINYL RIPS ===\=== EAC===\X FRESH RIP\Minute By Minute - Timewatch.wav
     Peak level 100.0 %
     Extraction speed 6.9 X
     Range quality 100.0 %
     Test CRC C7DFB363
     Copy CRC C7DFB363
     Copy OK
No errors occurred
AccurateRip summary
Track  1  not present in database
Track  2  not present in database
Track  3  not present in database
Track  4  not present in database
Track  5  not present in database
Track  6  not present in database
Track  7  not present in database
Track  8  not present in database
Track  9  not present in database
Track 10  not present in database
Track 11  not present in database
Track 12  not present in database
None of the tracks are present in the AccurateRip database
End of status report
---- CUETools DB Plugin V2.1.3
[CTDB TOCID: 5x5On2W9JNSL.weyoWvBlvq5G7U-] disk not present in database, Submit result: database access error: Timeout für Vorgang überschritten
==== Log checksum 2A1DBF590B49E5028E972112BDD0EB6C03D370D0C57DC6E050CA95AA8849A498 ====
Код:
REM GENRE Rock
REM DATE 1989
REM DISCID A20C700C
REM COMMENT "ExactAudioCopy v1.0b3"
CATALOG 0000000000000
PERFORMER "Minute By Minute"
TITLE "Timewatch"
FILE "Minute By Minute - Timewatch.flac" WAVE
  TRACK 01 AUDIO
    TITLE "Don't Mess With Fire"
    PERFORMER "Minute By Minute"
    INDEX 01 00:00:00
  TRACK 02 AUDIO
    TITLE "Long Hot Night"
    PERFORMER "Minute By Minute"
    INDEX 00 04:10:63
    INDEX 01 04:11:15
  TRACK 03 AUDIO
    TITLE "Million Miles Away"
    PERFORMER "Minute By Minute"
    INDEX 00 09:03:55
    INDEX 01 09:06:50
  TRACK 04 AUDIO
    TITLE "Short Avenue"
    PERFORMER "Minute By Minute"
    INDEX 00 13:47:68
    INDEX 01 13:49:73
  TRACK 05 AUDIO
    TITLE "Go Back To Sleep"
    PERFORMER "Minute By Minute"
    INDEX 00 19:16:38
    INDEX 01 19:18:53
  TRACK 06 AUDIO
    TITLE "Black & Blue"
    PERFORMER "Minute By Minute"
    INDEX 00 23:25:60
    INDEX 01 23:27:28
  TRACK 07 AUDIO
    TITLE "I'll Be Back"
    PERFORMER "Minute By Minute"
    INDEX 00 27:35:13
    INDEX 01 27:37:00
  TRACK 08 AUDIO
    TITLE "It'll Be Allright"
    PERFORMER "Minute By Minute"
    INDEX 00 31:59:03
    INDEX 01 32:00:63
  TRACK 09 AUDIO
    TITLE "Tijuana Holiday"
    PERFORMER "Minute By Minute"
    INDEX 00 36:31:60
    INDEX 01 36:34:38
  TRACK 10 AUDIO
    TITLE "Three Times Your Age"
    PERFORMER "Minute By Minute"
    INDEX 00 40:11:23
    INDEX 01 40:13:40
  TRACK 11 AUDIO
    TITLE "Homesick"
    PERFORMER "Minute By Minute"
    INDEX 00 45:00:08
    INDEX 01 45:03:05
  TRACK 12 AUDIO
    TITLE "Kathy's Love"
    PERFORMER "Minute By Minute"
    INDEX 00 48:43:23
    INDEX 01 48:45:00
Raymond John Fenwick (born 18 July 1946) is an English guitarist and session musician, best known for replacing Steve Howe in The Syndicats, and as the lead guitarist of Ian Gillan's post Deep Purple solo project, the Ian Gillan Band.
Fenwick's first professional group was a ska and bluebeat group called "Ray and the Red Devils". In 1964, he joined The Syndicats as replacement to Steve Howe. In 1965 he joined the Dutch group "Tee Set", from which developed another group "After Tea".
He was with The Spencer Davis Group from 1967 to 1969. He also co-wrote the theme music to the 1970s cult TV show Magpie, which was credited to "The Murgatroyd Band", which was basically The Spencer Davis Group at the time.
In July 1972, he played guitar on a number of the tracks for Bo Diddley's Chess Records album The London Bo Diddley Sessions. During the '70s he was part of the Ian Gillan Band. He participated in the Jon Lord live album, Windows in 1974. He was also in the group Fancy who had the hits "Touch Me" and a cover of Chip Taylor's "Wild Thing".
He also was a member of the band Forcefield (1987–1989) along with Tony Martin (Black Sabbath), Cozy Powell (Rainbow, Black Sabbath), Jan Akkerman and Neil Murray (Whitesnake, Black Sabbath). ~wikipedia
Правила, инструкции, FAQ!!!
Торрент  Добавлен [26 мар 2019, 19:42] Скачать торрент Магнет ссылка
Скачать торрент
[ Размер 13.75 КБ / Просмотров 3 ]

Статус
Проверен 
 
Размер  329.6 МБ
Приватный: Нет (DHT включён)
.torrent скачан  0
 


     Отправить личное сообщение
   
Страница 1 из 1
Показать сообщения за:  Поле сортировки  
Начать новую тему Ответить на тему


Сейчас этот форум просматривают: нет зарегистрированных пользователей и гости: 0


Вы не можете начинать темы
Вы не можете отвечать на сообщения
Вы не можете редактировать свои сообщения
Вы не можете удалять свои сообщения
Вы не можете добавлять вложения

Перейти:  
cron