Начать новую тему Ответить на тему
Статистика раздачи
Размер: 444.58 МБ | Добавлен: 26 мар 2019, 20:05 | Скачали: 1
Сидеров: 0  [0 байт/сек]    Личеров: 2  [0 байт/сек]
Пред. тема | След. тема 

Автор
Сообщение

СообщениеДобавлено: 26 мар 2019, 20:05 

Ответить с цитатой 

Mike Peters - Acoustic Works 1981-1986
Жанр: Pop Rock/Soft Rock
Носитель: CD
Страна-производитель диска (релиза): UK
Год издания: 1997
Издатель (лейбл): The Twenty First Century Recording Co.
Номер по каталогу: 004
Страна исполнителя (группы): UK
Аудиокодек: APE (*.ape)
Тип рипа: image+.cue
Битрейт аудио: lossless
Продолжительность: 1:13:11
Источник (релизер): dickthespic
Наличие сканов в содержимом раздачи: нет
Треклист:
01 Unsafe Building [2:32]
02 The Stand [3:16]
03 For Freedom [3:41]
04 Lie Of The Land [2:38]
05 Declaration [0:28]
06 Marching On [3:42]
07 Where Were You Hiding When The Storm Broke? [2:51]
08 Sixty Eight Guns [4:04]
09 We Are The Light [3:13]
10 Shout To The Devil [3:01]
11 Blaze Of Glory [2:51]
12 The Deceiver [3:20]
13 Howling Wind [2:42]
14 Thoughts Of A Young Man [pt. one] [2:51]
15 Absolute Reality [album version] [3:28]
16 Knifedge [3:39]
17 Strength [3:14]
18 Dawn Chorus [3:58]
19 Spirit Of '76 [5:09]
20 Deeside [2:59]
21 Father To Son [3:08]
22 Only The Thunder [3:25]
23 Walk Forever By My Side [3:01]
Код:
Exact Audio Copy V1.3 from 2. September 2016
EAC extraction logfile from 18. April 2018, 14:45
MIKE PETERS / Acoustic Works 1981-1986
Used drive  : Optiarc DVD RW AD-7260S   Adapter: 1  ID: 0
Read mode               : Secure
Utilize accurate stream : Yes
Defeat audio cache      : Yes
Make use of C2 pointers : No
Read offset correction                      : 48
Overread into Lead-In and Lead-Out          : No
Fill up missing offset samples with silence : Yes
Delete leading and trailing silent blocks   : No
Null samples used in CRC calculations       : Yes
Used interface                              : Native Win32 interface for Win NT & 2000
Used output format : Internal WAV Routines
Sample format      : 44.100 Hz; 16 Bit; Stereo
TOC of the extracted CD
     Track |   Start  |  Length  | Start sector | End sector
    ---------------------------------------------------------
        1  |  0:00.00 |  2:32.32 |         0    |    11431
        2  |  2:32.32 |  3:15.58 |     11432    |    26114
        3  |  5:48.15 |  3:40.60 |     26115    |    42674
        4  |  9:29.00 |  2:37.50 |     42675    |    54499
        5  | 12:06.50 |  0:27.40 |     54500    |    56564
        6  | 12:34.15 |  3:42.15 |     56565    |    73229
        7  | 16:16.30 |  2:51.05 |     73230    |    86059
        8  | 19:07.35 |  4:04.10 |     86060    |   104369
        9  | 23:11.45 |  3:13.15 |    104370    |   118859
       10  | 26:24.60 |  3:01.37 |    118860    |   132471
       11  | 29:26.22 |  2:50.45 |    132472    |   145266
       12  | 32:16.67 |  3:19.68 |    145267    |   160259
       13  | 35:36.60 |  2:42.17 |    160260    |   172426
       14  | 38:19.02 |  2:51.30 |    172427    |   185281
       15  | 41:10.32 |  3:28.28 |    185282    |   200909
       16  | 44:38.60 |  3:39.20 |    200910    |   217354
       17  | 48:18.05 |  3:13.47 |    217355    |   231876
       18  | 51:31.52 |  3:57.63 |    231877    |   249714
       19  | 55:29.40 |  5:08.65 |    249715    |   272879
       20  | 60:38.30 |  2:58.40 |    272880    |   286269
       21  | 63:36.70 |  3:08.37 |    286270    |   300406
       22  | 66:45.32 |  3:24.53 |    300407    |   315759
       23  | 70:10.10 |  3:00.72 |    315760    |   329331
Range status and errors
Selected range
     Filename E:\Audio Rip\MIKE PETERS - Acoustic Works 1981-1986.wav
     Peak level 100.0 %
     Extraction speed 4.5 X
     Range quality 100.0 %
     Test CRC EEECA767
     Copy CRC EEECA767
     Copy OK
No errors occurred
AccurateRip summary
Track  1  accurately ripped (confidence 4)  [038EAA52]  (AR v1)
Track  2  accurately ripped (confidence 4)  [3B25990D]  (AR v1)
Track  3  accurately ripped (confidence 4)  [14105C0B]  (AR v1)
Track  4  accurately ripped (confidence 4)  [BE70546E]  (AR v1)
Track  5  accurately ripped (confidence 4)  [6F015322]  (AR v1)
Track  6  accurately ripped (confidence 4)  [5F104915]  (AR v1)
Track  7  accurately ripped (confidence 4)  [94094C8E]  (AR v1)
Track  8  accurately ripped (confidence 4)  [9DE232EB]  (AR v1)
Track  9  accurately ripped (confidence 4)  [57A5683E]  (AR v1)
Track 10  accurately ripped (confidence 4)  [20CB0F84]  (AR v1)
Track 11  accurately ripped (confidence 4)  [BB334622]  (AR v1)
Track 12  accurately ripped (confidence 4)  [963DD7DC]  (AR v1)
Track 13  accurately ripped (confidence 4)  [047ED567]  (AR v1)
Track 14  accurately ripped (confidence 4)  [9C61E803]  (AR v1)
Track 15  accurately ripped (confidence 4)  [775F9A54]  (AR v1)
Track 16  accurately ripped (confidence 4)  [31916A94]  (AR v1)
Track 17  accurately ripped (confidence 4)  [E59E21D6]  (AR v1)
Track 18  accurately ripped (confidence 4)  [18D7149B]  (AR v1)
Track 19  accurately ripped (confidence 4)  [B36A41A2]  (AR v1)
Track 20  accurately ripped (confidence 4)  [2BD2B2A4]  (AR v1)
Track 21  accurately ripped (confidence 4)  [2C4CAA50]  (AR v1)
Track 22  accurately ripped (confidence 4)  [DB0D15A2]  (AR v1)
Track 23  accurately ripped (confidence 4)  [0415366F]  (AR v1)
All tracks accurately ripped
End of status report
---- CUETools DB Plugin V2.1.6
[CTDB TOCID: ZkVD9.gs5x6M0wvI6k6PRXWuPu0-] found
Submit result: ZkVD9.gs5x6M0wvI6k6PRXWuPu0- has been confirmed
Track | CTDB Status
  1   | (3/3) Accurately ripped
  2   | (3/3) Accurately ripped
  3   | (3/3) Accurately ripped
  4   | (3/3) Accurately ripped
  5   | (3/3) Accurately ripped
  6   | (3/3) Accurately ripped
  7   | (3/3) Accurately ripped
  8   | (3/3) Accurately ripped
  9   | (3/3) Accurately ripped
 10   | (3/3) Accurately ripped
 11   | (3/3) Accurately ripped
 12   | (3/3) Accurately ripped
 13   | (3/3) Accurately ripped
 14   | (3/3) Accurately ripped
 15   | (3/3) Accurately ripped
 16   | (3/3) Accurately ripped
 17   | (3/3) Accurately ripped
 18   | (3/3) Accurately ripped
 19   | (3/3) Accurately ripped
 20   | (3/3) Accurately ripped
 21   | (3/3) Accurately ripped
 22   | (3/3) Accurately ripped
 23   | (3/3) Accurately ripped
==== Log checksum 436BA17682559B5A61F778A267D2D5506C2B800E6BF67FD982BEEA5B7FADD52B ====
Код:
REM GENRE Rock
REM DATE 1997
REM DISCID 47112717
REM COMMENT "ExactAudioCopy v1.3"
PERFORMER "MIKE PETERS"
TITLE "Acoustic Works 1981-1986"
FILE "MIKE PETERS - Acoustic Works 1981-1986.ape" WAVE
  TRACK 01 AUDIO
    TITLE "Unsafe Building"
    PERFORMER "MIKE PETERS"
    INDEX 01 00:00:00
  TRACK 02 AUDIO
    TITLE "The Stand"
    PERFORMER "MIKE PETERS"
    INDEX 01 02:32:32
  TRACK 03 AUDIO
    TITLE "For Freedom"
    PERFORMER "MIKE PETERS"
    INDEX 01 05:48:15
  TRACK 04 AUDIO
    TITLE "Lie Of The Land"
    PERFORMER "MIKE PETERS"
    INDEX 01 09:29:00
  TRACK 05 AUDIO
    TITLE "Declaration"
    PERFORMER "MIKE PETERS"
    INDEX 01 12:06:50
  TRACK 06 AUDIO
    TITLE "Marching On"
    PERFORMER "MIKE PETERS"
    INDEX 01 12:34:15
  TRACK 07 AUDIO
    TITLE "Where Were You Hiding When The Storm Broke?"
    PERFORMER "MIKE PETERS"
    INDEX 01 16:16:30
  TRACK 08 AUDIO
    TITLE "Sixty Eight Guns"
    PERFORMER "MIKE PETERS"
    INDEX 01 19:07:35
  TRACK 09 AUDIO
    TITLE "We Are The Light"
    PERFORMER "MIKE PETERS"
    INDEX 01 23:11:45
  TRACK 10 AUDIO
    TITLE "Shout To The Devil"
    PERFORMER "MIKE PETERS"
    INDEX 01 26:24:60
  TRACK 11 AUDIO
    TITLE "Blaze Of Glory"
    PERFORMER "MIKE PETERS"
    INDEX 01 29:26:22
  TRACK 12 AUDIO
    TITLE "The Deceiver"
    PERFORMER "MIKE PETERS"
    INDEX 01 32:16:67
  TRACK 13 AUDIO
    TITLE "Howling Wind"
    PERFORMER "MIKE PETERS"
    INDEX 01 35:36:60
  TRACK 14 AUDIO
    TITLE "Thoughts Of A Young Man [pt. one]"
    PERFORMER "MIKE PETERS"
    INDEX 01 38:19:02
  TRACK 15 AUDIO
    TITLE "Absolute Reality [album version]"
    PERFORMER "MIKE PETERS"
    INDEX 01 41:10:32
  TRACK 16 AUDIO
    TITLE "Knifedge"
    PERFORMER "MIKE PETERS"
    INDEX 01 44:38:60
  TRACK 17 AUDIO
    TITLE "Strength"
    PERFORMER "MIKE PETERS"
    INDEX 01 48:18:05
  TRACK 18 AUDIO
    TITLE "Dawn Chorus"
    PERFORMER "MIKE PETERS"
    INDEX 01 51:31:52
  TRACK 19 AUDIO
    TITLE "Spirit Of 76"
    PERFORMER "MIKE PETERS"
    INDEX 01 55:29:40
  TRACK 20 AUDIO
    TITLE "Deeside"
    PERFORMER "MIKE PETERS"
    INDEX 01 60:38:30
  TRACK 21 AUDIO
    TITLE "Father To Son"
    PERFORMER "MIKE PETERS"
    INDEX 01 63:36:70
  TRACK 22 AUDIO
    TITLE "Only The Thunder"
    PERFORMER "MIKE PETERS"
    INDEX 01 66:45:32
  TRACK 23 AUDIO
    TITLE "Walk Forever By My Side"
    PERFORMER "MIKE PETERS"
    INDEX 01 70:10:10
Код:
[CUETools log; Date: 18/04/2018 14:48:41; Version: 2.1.6]
[CTDB TOCID: ZkVD9.gs5x6M0wvI6k6PRXWuPu0-] found.
Track | CTDB Status
  1   | (4/4) Accurately ripped
  2   | (4/4) Accurately ripped
  3   | (4/4) Accurately ripped
  4   | (4/4) Accurately ripped
  5   | (4/4) Accurately ripped
  6   | (4/4) Accurately ripped
  7   | (4/4) Accurately ripped
  8   | (4/4) Accurately ripped
  9   | (4/4) Accurately ripped
 10   | (4/4) Accurately ripped
 11   | (4/4) Accurately ripped
 12   | (4/4) Accurately ripped
 13   | (4/4) Accurately ripped
 14   | (4/4) Accurately ripped
 15   | (4/4) Accurately ripped
 16   | (4/4) Accurately ripped
 17   | (4/4) Accurately ripped
 18   | (4/4) Accurately ripped
 19   | (4/4) Accurately ripped
 20   | (4/4) Accurately ripped
 21   | (4/4) Accurately ripped
 22   | (4/4) Accurately ripped
 23   | (4/4) Accurately ripped
[AccurateRip ID: 00399645-03ccf00a-47112717] found.
Track   [  CRC   |   V2   ] Status
 01     [038eaa52|a41588bd] (4+0/4) Accurately ripped
 02     [3b25990d|91e7508a] (4+0/4) Accurately ripped
 03     [14105c0b|4302fdb1] (4+0/4) Accurately ripped
 04     [be70546e|5ab939ed] (4+0/4) Accurately ripped
 05     [6f015322|864415a0] (4+0/4) Accurately ripped
 06     [5f104915|d31f120b] (4+0/4) Accurately ripped
 07     [94094c8e|6c2f93ac] (4+0/4) Accurately ripped
 08     [9de232eb|579458f8] (4+0/4) Accurately ripped
 09     [57a5683e|686dd577] (4+0/4) Accurately ripped
 10     [20cb0f84|bb41816b] (4+0/4) Accurately ripped
 11     [bb334622|c79f8573] (4+0/4) Accurately ripped
 12     [963dd7dc|4791fa31] (4+0/4) Accurately ripped
 13     [047ed567|a006ccb9] (4+0/4) Accurately ripped
 14     [9c61e803|07ce87b7] (4+0/4) Accurately ripped
 15     [775f9a54|dc21f63b] (4+0/4) Accurately ripped
 16     [31916a94|9f941c9f] (4+0/4) Accurately ripped
 17     [e59e21d6|1b0d217b] (4+0/4) Accurately ripped
 18     [18d7149b|1c07f1af] (4+0/4) Accurately ripped
 19     [b36a41a2|4cd03067] (4+0/4) Accurately ripped
 20     [2bd2b2a4|193dcbe3] (4+0/4) Accurately ripped
 21     [2c4caa50|57d1032f] (4+0/4) Accurately ripped
 22     [db0d15a2|3853ac47] (4+0/4) Accurately ripped
 23     [0415366f|61678618] (4+0/4) Accurately ripped
Track Peak [ CRC32  ] [W/O NULL] [  LOG   ]
 --  100,0 [EEECA767] [9FDBDFB1]   CRC32
 01  100,0 [B4886B83] [F5E1E923]
 02   98,2 [99300A04] [9832D611]
 03  100,0 [B1CD3250] [C48387D4]
 04   98,0 [4F6FA61E] [CA233FC1]
 05   90,4 [D30AA21E] [8979E965]
 06  100,0 [E676ABE7] [9C205C1F]
 07   96,3 [9C187BEA] [F91F0B62]
 08   97,9 [2A83DC5C] [FBBCB3D8]
 09   98,7 [09FE2FA8] [345FCA68]
 10  100,0 [4E3047C4] [107883BF]
 11   95,9 [403FB4F6] [259F0B48]
 12   97,8 [35DF587C] [8E1A1AFF]
 13  100,0 [527589AC] [0DD29851]
 14   93,9 [B2224D44] [2007D021]
 15   99,3 [3ED6FD09] [4F212DBF]
 16   97,6 [ADABF1F5] [B7BC2E47]
 17  100,0 [F1952A00] [6EDE3A80]
 18  100,0 [16899E5A] [E9BFEF17]
 19  100,0 [7524B136] [4FAA21E5]
 20  100,0 [AB392AE0] [0FE344DC]
 21   95,2 [78131DB8] [1EBED3C8]
 22  100,0 [020A2757] [9FBFAB14]
 23  100,0 [505D429B] [E2809901]
Правила, инструкции, FAQ!!!
Торрент  Добавлен [26 мар 2019, 20:05] Скачать торрент Магнет ссылка
Скачать торрент
[ Размер 18.63 КБ / Просмотров 2 ]

Статус
Проверен 
 
Размер  444.58 МБ
Приватный: Нет (DHT включён)
.torrent скачан  1
 


     Отправить личное сообщение
   
Страница 1 из 1
Показать сообщения за:  Поле сортировки  
Начать новую тему Ответить на тему


Сейчас этот форум просматривают: нет зарегистрированных пользователей и гости: 0


Вы не можете начинать темы
Вы не можете отвечать на сообщения
Вы не можете редактировать свои сообщения
Вы не можете удалять свои сообщения
Вы не можете добавлять вложения

Перейти:  
cron