Начать новую тему Ответить на тему
Статистика раздачи
Размер: 282.08 МБ | Добавлен: 26 мар 2019, 20:48 | Скачали: 0
Сидеров: 0  [0 байт/сек]    Личеров: 0  [0 байт/сек]
Пред. тема | След. тема 

Автор
Сообщение

СообщениеДобавлено: 26 мар 2019, 20:48 

Ответить с цитатой 

Michael Des Barres - Somebody Up There Likes Me
Жанр: Pop Rock, Soft Rock
Носитель: CD
Страна-производитель диска: Япония
Год издания: 1986
Издатель (лейбл): GOLD MOUNTAIN/VICTOR
Номер по каталогу: VDP-1126
Страна исполнителя (группы): Англия
Аудиокодек: FLAC (*.flac)
Тип рипа: image+.cue
Битрейт аудио: lossless
Продолжительность: 43:38
Источник (релизер): Собственный рип
Наличие сканов в содержимом раздачи: да
Треклист:
1. Money Don't Come Easy (04:07)
2. Do You Belong? (04:28)
3. Is There Someone Else? (04:32)
4. Everything Reminds Me Of You (03:55)
5. I Can See Clearly Now (03:52)
6. Somebody Up There Likes Me (04:44)
7. Too Good To Be Bad (05:11)
8. Locked In The Cage Of Love (03:32)
9. Camera Eyes (05:11)
10. Thinking With Your Body (04:02)
Код:
Exact Audio Copy V1.0 beta 3 from 29. August 2011
Отчёт EAC об извлечении, выполненном 18. июня 2016, 11:11
Michael Des Barres / Somebody Up There Likes Me [VDP-1126]
Дисковод: ASUS    DRW-2014S1   Adapter: 1  ID: 0
Режим чтения                 : Достоверность
Использование точного потока : Да
Отключение кэша аудио        : Да
Использование указателей C2  : Нет
Коррекция смещения при чтении                     : 6
Способность читать области Lead-in и Lead-out     : Нет
Заполнение пропущенных сэмплов тишиной            : Да
Удаление блоков с тишиной в начале и конце        : Нет
При вычислениях CRC использовались нулевые сэмплы : Да
Интерфейс                                         : Встроенный Win32-интерфейс для Win NT/2000
Выходной формат          : Пользовательский кодировщик
Выбранный битрейт        : 128 kBit/s
Качество                 : Высокий
Добавление ID3-тега      : Нет
Утилита сжатия           : C:\Program Files (x86)\Exact Audio Copy\Flac\flac.exe
Дополнительные параметры : -V -8 -T "Date=%year%" -T "Genre=%genre%" %source%
TOC извлечённого CD
     Трек |   Старт  | Длительность | Начальный сектор | Конечный сектор
    ---------------------------------------------------------------------
       1  |  0:00.37 |    4:07.60   |          37      |      18621
       2  |  4:08.22 |    4:28.58   |       18622      |      38779
       3  |  8:37.05 |    4:32.62   |       38780      |      59241
       4  | 13:09.67 |    3:55.65   |       59242      |      76931
       5  | 17:05.57 |    3:52.15   |       76932      |      94346
       6  | 20:57.72 |    4:44.13   |       94347      |     115659
       7  | 25:42.10 |    5:11.07   |      115660      |     138991
       8  | 30:53.17 |    3:32.15   |      138992      |     154906
       9  | 34:25.32 |    5:11.03   |      154907      |     178234
      10  | 39:36.35 |    4:03.17   |      178235      |     196476
Характеристики диапазона извлечения и сообщения об ошибках
Выбранный диапазон
     Имя файла Z:\Michael Des Barres\1986 Somebody Up There Likes Me\Michael Des Barres - Somebody Up There Likes Me [VDP-1126].wav
     Пиковый уровень 89.3 %
     Скорость извлечения 8.5 X
     Качество диапазона 100.0 %
     CRC копии CF620A60
     Копирование... OK
Ошибок не произошло
AccurateRip: сводка
Трек  1  отсутствует в базе данных
Трек  2  отсутствует в базе данных
Трек  3  отсутствует в базе данных
Трек  4  отсутствует в базе данных
Трек  5  отсутствует в базе данных
Трек  6  отсутствует в базе данных
Трек  7  отсутствует в базе данных
Трек  8  отсутствует в базе данных
Трек  9  отсутствует в базе данных
Трек 10  отсутствует в базе данных
Ни одного трека нет в базе AccurateRip
Конец отчёта
==== Контрольная сумма отчёта EB36A313A1644A678AE2FA4BF9208704C62024BF63447ED68667BD91979A5442 ====
Правила, инструкции, FAQ!!!
Торрент  Добавлен [26 мар 2019, 20:48] Скачать торрент Магнет ссылка
Скачать торрент
[ Размер 12.01 КБ / Просмотров 1 ]

Статус
Проверен 
 
Размер  282.08 МБ
Приватный: Нет (DHT включён)
.torrent скачан  0
 


     Отправить личное сообщение
   
Страница 1 из 1
Показать сообщения за:  Поле сортировки  
Начать новую тему Ответить на тему


Сейчас этот форум просматривают: нет зарегистрированных пользователей и гости: 0


Вы не можете начинать темы
Вы не можете отвечать на сообщения
Вы не можете редактировать свои сообщения
Вы не можете удалять свои сообщения
Вы не можете добавлять вложения

Перейти:  
cron