Начать новую тему Ответить на тему
Статистика раздачи
Размер: 506.67 МБ | Добавлен: 26 мар 2019, 20:05 | Скачали: 0
Сидеров: 1  [0 байт/сек]    Личеров: 0  [0 байт/сек]
Пред. тема | След. тема 

Автор
Сообщение

СообщениеДобавлено: 26 мар 2019, 20:05 

Ответить с цитатой 

Mark Wirtz /The Dreamer of Glass Beach: The Hollywood Years 1971-1982 Vol.2
Жанр: pop rock, soft rock
Носитель: CD
Страна-производитель диска (релиза): UK
Год издания: 1999
Издатель (лейбл): RPM
Номер по каталогу: RPM 191
Страна исполнителя (группы): UK
Аудиокодек: FLAC (*.flac)
Тип рипа: image+.cue
Битрейт аудио: lossless
Продолжительность: 01:17:43
Источник (релизер): собственный рип
Наличие сканов в содержимом раздачи: да
Треклист:
1 The Song I Sing
2 Spring
3 Am I Me?
4 What Now Poor World?
5 The Way You Play At Living
6 Kings, Queens & Fairytails
7 Somewhere Else
8 America Sundae
9 Honest Man
10 Nothing To Do
11 Out Of Our Hands
12 Cradle Me
13 Boneta Noleta
14 77 Nights
15 Do You Really Want My Love
16 Oh How She Loves Me
17 Ecstasy Don't Come Free
18 Tick-A Time Theme
19 The Dreamer Of Glass Beach
Код:
Exact Audio Copy V1.1 from 23. June 2015
Отчёт EAC об извлечении, выполненном 30. января 2016, 15:52
Mark Wirtz / The Dreamer Of Glass Beach
Дисковод: ASUS    DRW-24B3ST   Adapter: 0  ID: 0
Режим чтения                 : Достоверность
Использование точного потока : Да
Отключение кэша аудио        : Да
Использование указателей C2  : Нет
Коррекция смещения при чтении                     : 6
Способность читать области Lead-in и Lead-out     : Нет
Заполнение пропущенных сэмплов тишиной            : Да
Удаление блоков с тишиной в начале и конце        : Нет
При вычислениях CRC использовались нулевые сэмплы : Да
Интерфейс                                         : Установленный внешний ASPI-интерфейс
Выходной формат          : Пользовательский кодировщик
Выбранный битрейт        : 896 kBit/s
Качество                 : Высокий
Добавление ID3-тега      : Нет
Утилита сжатия           : C:\Program Files (x86)\Exact Audio Copy\FLAC\FLAC.EXE
Дополнительные параметры : -6 -V -T "ARTIST=%artist%" -T "TITLE=%title%" -T "ALBUM=%albumtitle%" -T "DATE=%year%" -T "TRACKNUMBER=%tracknr%" -T "GENRE=%genre%" -T "COMMENT=%comment%" -T "BAND=%albuminterpret%" -T "ALBUMARTIST=%albuminterpret%" -T "COMPOSER=%composer%" %haslyrics%--tag-from-file=LYRICS="%lyricsfile%"%haslyrics% -T "DISCNUMBER=%cdnumber%" -T "TOTALDISCS=%totalcds%" -T "TOTALTRACKS=%numtracks%" %hascover%--picture="%coverfile%"%hascover% %source% -o %dest%
TOC извлечённого CD
     Трек |   Старт  | Длительность | Начальный сектор | Конечный сектор
    ---------------------------------------------------------------------
       1  |  0:00.00 |    5:58.15   |           0      |      26864
       2  |  5:58.15 |    3:38.40   |       26865      |      43254
       3  |  9:36.55 |    3:53.57   |       43255      |      60786
       4  | 13:30.37 |    2:35.28   |       60787      |      72439
       5  | 16:05.65 |    6:31.35   |       72440      |     101799
       6  | 22:37.25 |    3:26.60   |      101800      |     117309
       7  | 26:04.10 |    4:48.62   |      117310      |     138971
       8  | 30:52.72 |    4:05.20   |      138972      |     157366
       9  | 34:58.17 |    4:53.60   |      157367      |     179401
      10  | 39:52.02 |    1:30.48   |      179402      |     186199
      11  | 41:22.50 |    3:54.45   |      186200      |     203794
      12  | 45:17.20 |    4:07.65   |      203795      |     222384
      13  | 49:25.10 |    3:33.32   |      222385      |     238391
      14  | 52:58.42 |    3:03.30   |      238392      |     252146
      15  | 56:01.72 |    2:38.43   |      252147      |     264039
      16  | 58:40.40 |    4:31.17   |      264040      |     284381
      17  | 63:11.57 |    8:26.65   |      284382      |     322396
      18  | 71:38.47 |    2:59.48   |      322397      |     335869
      19  | 74:38.20 |    3:04.02   |      335870      |     349671
Характеристики диапазона извлечения и сообщения об ошибках
Выбранный диапазон
     Имя файла E:\Torrents\Mark Wirtz - 1971-1999 - The Dreamer Of Glass Beach\Mark Wirtz - The Dreamer Of Glass Beach.wav
     Пиковый уровень 99.5 %
     Скорость извлечения 9.8 X
     Качество диапазона 99.9 %
     CRC теста FA673209
     CRC копии FA673209
     Копирование... OK
Ошибок не произошло
Конец отчёта
==== Контрольная сумма отчёта 67F23BE3C1F717382022653F257C0A278C05D647E736F8D9B5B69A62C01CEB01 ====
Правила, инструкции, FAQ!!!
Торрент  Добавлен [26 мар 2019, 20:05] Скачать торрент Магнет ссылка
Скачать торрент
[ Размер 20.67 КБ / Просмотров 17 ]

Статус
Проверен 
 
Размер  506.67 МБ
Приватный: Нет (DHT включён)
.torrent скачан  0
 


     Отправить личное сообщение
   
Страница 1 из 1
Показать сообщения за:  Поле сортировки  
Начать новую тему Ответить на тему


Сейчас этот форум просматривают: нет зарегистрированных пользователей и гости: 0


Вы не можете начинать темы
Вы не можете отвечать на сообщения
Вы не можете редактировать свои сообщения
Вы не можете удалять свои сообщения
Вы не можете добавлять вложения

Перейти:  
cron