Начать новую тему Ответить на тему
Статистика раздачи
Размер: 501.39 МБ | Добавлен: 26 мар 2019, 20:07 | Скачали: 0
Сидеров: 0  [0 байт/сек]    Личеров: 0  [0 байт/сек]
Пред. тема | След. тема 

Автор
Сообщение

СообщениеДобавлено: 26 мар 2019, 20:07 

Ответить с цитатой 

Mark Wirtz / Kitschinsync: The Hollywood Years 1971-1982 Vol.1
Жанр: pop rock, soft rock
Носитель: CD
Страна-производитель диска (релиза): UK
Год издания: 1999
Издатель (лейбл): RPM
Номер по каталогу: RPM 190
Страна исполнителя (группы): UK
Аудиокодек: FLAC (*.flac)
Тип рипа: image+.cue
Битрейт аудио: lossless
Продолжительность: 01:15:50
Источник (релизер): собственный рип
Наличие сканов в содержимом раздачи: да
Треклист:
1 Hasn't It Been A Heavy Day
2 Trambouline
3 Long Long Way From Home
4 Balloon
5 Mellow Man
6 Satan Took A Tram Ride
7 Swan
8 Silverlake Ripple
9 Everybody Needs Someone, Somebody
10 We Could Have Laughed Forever
11 Salty Water
12 Peeping Tom
13 Bye Bye Sadie
14 Farewell Lullaby
15 Maniac Vs. Braniac
16 Love Is Eggshaped
17 Chug-A-Lug Song
18 In The Eyes Of Love
19 I'm Impressed
20 KC's Theme
Код:
Exact Audio Copy V1.1 from 23. June 2015
Отчёт EAC об извлечении, выполненном 30. января 2016, 16:42
Mark Wirtz / Kitschinsync
Дисковод: ASUS    DRW-24B3ST   Adapter: 0  ID: 0
Режим чтения                 : Достоверность
Использование точного потока : Да
Отключение кэша аудио        : Да
Использование указателей C2  : Нет
Коррекция смещения при чтении                     : 6
Способность читать области Lead-in и Lead-out     : Нет
Заполнение пропущенных сэмплов тишиной            : Да
Удаление блоков с тишиной в начале и конце        : Нет
При вычислениях CRC использовались нулевые сэмплы : Да
Интерфейс                                         : Установленный внешний ASPI-интерфейс
Выходной формат          : Пользовательский кодировщик
Выбранный битрейт        : 896 kBit/s
Качество                 : Высокий
Добавление ID3-тега      : Нет
Утилита сжатия           : C:\Program Files (x86)\Exact Audio Copy\FLAC\FLAC.EXE
Дополнительные параметры : -6 -V -T "ARTIST=%artist%" -T "TITLE=%title%" -T "ALBUM=%albumtitle%" -T "DATE=%year%" -T "TRACKNUMBER=%tracknr%" -T "GENRE=%genre%" -T "COMMENT=%comment%" -T "BAND=%albuminterpret%" -T "ALBUMARTIST=%albuminterpret%" -T "COMPOSER=%composer%" %haslyrics%--tag-from-file=LYRICS="%lyricsfile%"%haslyrics% -T "DISCNUMBER=%cdnumber%" -T "TOTALDISCS=%totalcds%" -T "TOTALTRACKS=%numtracks%" %hascover%--picture="%coverfile%"%hascover% %source% -o %dest%
TOC извлечённого CD
     Трек |   Старт  | Длительность | Начальный сектор | Конечный сектор
    ---------------------------------------------------------------------
       1  |  0:00.00 |    2:14.40   |           0      |      10089
       2  |  2:14.40 |    3:35.67   |       10090      |      26281
       3  |  5:50.32 |    3:06.28   |       26282      |      40259
       4  |  8:56.60 |    2:55.67   |       40260      |      53451
       5  | 11:52.52 |    3:25.48   |       53452      |      68874
       6  | 15:18.25 |    2:53.02   |       68875      |      81851
       7  | 18:11.27 |    8:26.23   |       81852      |     119824
       8  | 26:37.50 |    4:17.25   |      119825      |     139124
       9  | 30:55.00 |    4:11.00   |      139125      |     157949
      10  | 35:06.00 |    3:26.05   |      157950      |     173404
      11  | 38:32.05 |    3:55.60   |      173405      |     191089
      12  | 42:27.65 |    4:16.67   |      191090      |     210356
      13  | 46:44.57 |    3:19.65   |      210357      |     225346
      14  | 50:04.47 |    2:55.23   |      225347      |     238494
      15  | 52:59.70 |    3:22.50   |      238495      |     253694
      16  | 56:22.45 |    4:04.65   |      253695      |     272059
      17  | 60:27.35 |    2:45.07   |      272060      |     284441
      18  | 63:12.42 |    5:32.58   |      284442      |     309399
      19  | 68:45.25 |    3:22.12   |      309400      |     324561
      20  | 72:07.37 |    3:42.70   |      324562      |     341281
Характеристики диапазона извлечения и сообщения об ошибках
Выбранный диапазон
     Имя файла E:\Torrents\Mark Wirtz - 1999 - The Hollywood Years 1971-1982 Vol.1\Mark Wirtz - Kitschinsync.wav
     Пиковый уровень 99.5 %
     Скорость извлечения 9.9 X
     Качество диапазона 100.0 %
     CRC теста 1624857E
     CRC копии 1624857E
     Копирование... OK
Ошибок не произошло
Конец отчёта
==== Контрольная сумма отчёта DC51F84BDA55D3D57B59024D3A0DC76A78B6B71D2F1482D1942098E492755603 ====
Правила, инструкции, FAQ!!!
Торрент  Добавлен [26 мар 2019, 20:07] Скачать торрент Магнет ссылка
Скачать торрент
[ Размер 20.41 КБ / Просмотров 0 ]

Статус
Проверен 
 
Размер  501.39 МБ
Приватный: Нет (DHT включён)
.torrent скачан  0
 


     Отправить личное сообщение
   
Страница 1 из 1
Показать сообщения за:  Поле сортировки  
Начать новую тему Ответить на тему


Сейчас этот форум просматривают: нет зарегистрированных пользователей и гости: 0


Вы не можете начинать темы
Вы не можете отвечать на сообщения
Вы не можете редактировать свои сообщения
Вы не можете удалять свои сообщения
Вы не можете добавлять вложения

Перейти:  
cron