Начать новую тему Ответить на тему
Статистика раздачи
Размер: 345.36 МБ | Добавлен: 26 мар 2019, 19:35 | Скачали: 0
Сидеров: 0  [0 байт/сек]    Личеров: 0  [0 байт/сек]
Пред. тема | След. тема 

Автор
Сообщение

СообщениеДобавлено: 26 мар 2019, 19:35 

Ответить с цитатой 

Marion Raven - Set Me Free [Enhanced CD]
Жанр: Pop-Rock & Soft Rock
Страна-производитель диска: E.U.
Год издания диска: 2007
Издатель (лейбл): Eleven Seven Music
Номер по каталогу: ESE092
Аудиокодек: FLAC (*.flac)
Тип рипа: image+.cue
Битрейт аудио: lossless
Источник (релизер): Собственный диск
Треклист:
01. Set Me Free (3:53)
02. Falling Away (3:31)
03. Crawl (3:49)
04. Here I Am (3:53)
05. Thank You (4:13)
06. 13 Days (3:08)
07. Break You (3:12)
08. Heads Will Roll (3:20)
09. For You I'd Die (4:53)
10. End Of The Day (4:04)
11. All I Wanna Do Is You (7:05)
Талантливая норвежская певица, известна по дуэту с Meat Loaf - It's All Coming Back To Me Now.
Замечена в клипе Mötley Crüe - Saints Of Los Angeles.
Код:
Exact Audio Copy V1.0 beta 2 from 29. April 2011
Отчёт EAC об извлечении, выполненном 19. января 2012, 18:27
Marion Raven / Set me free
Дисковод: MATSHITADVD-RAM UJ8A0AS   Adapter: 0  ID: 1
Режим чтения                 : Достоверность
Использование точного потока : Да
Отключение кэша аудио        : Да
Использование указателей C2  : Нет
Коррекция смещения при чтении                     : 102
Способность читать области Lead-in и Lead-out     : Нет
Заполнение пропущенных сэмплов тишиной            : Да
Удаление блоков с тишиной в начале и конце        : Нет
При вычислениях CRC использовались нулевые сэмплы : Да
Интерфейс                                         : Встроенный Win32-интерфейс для Win NT/2000
Выходной формат          : Пользовательский кодировщик
Выбранный битрейт        : 128 kBit/s
Качество                 : Высокий
Добавление ID3-тега      : Нет
Утилита сжатия           : C:\Program Files (x86)\Exact Audio Copy\Flac\flac.exe
Дополнительные параметры : -V -8 -T "Date=%year%" -T "Genre=%genre%" %source%
TOC извлечённого CD
     Трек |   Старт  | Длительность | Начальный сектор | Конечный сектор
    ---------------------------------------------------------------------
       1  |  0:00.00 |    3:52.69   |           0      |      17468
       2  |  3:52.69 |    3:31.28   |       17469      |      33321
       3  |  7:24.22 |    3:49.27   |       33322      |      50523
       4  | 11:13.49 |    3:52.41   |       50524      |      67964
       5  | 15:06.15 |    4:12.69   |       67965      |      86933
       6  | 19:19.09 |    3:07.50   |       86934      |     101008
       7  | 22:26.59 |    3:12.03   |      101009      |     115411
       8  | 25:38.62 |    3:19.49   |      115412      |     130385
       9  | 28:58.36 |    4:53.24   |      130386      |     152384
      10  | 33:51.60 |    4:04.28   |      152385      |     170712
      11  | 37:56.13 |    7:04.48   |      170713      |     202560
      12  | 47:32.61 |    5:29.50   |      213961      |     238685
Характеристики диапазона извлечения и сообщения об ошибках
Выбранный диапазон
     Имя файла F:\Музыка\torrents\Marion Raven - Set me free.wav
     Пиковый уровень 100.0 %
     Скорость извлечения 1.2 X
     Качество диапазона 99.9 %
     CRC теста 2602B678
     CRC копии 2602B678
     Копирование... OK
Ошибок не произошло
Конец отчёта
==== Контрольная сумма отчёта 46B02882E8B88A9B7DBBE541B4C3DCE10DAF066892EE72B3FEE378AD815093C1 ====
Формат: QuickTime
Видео: Sorenson 3, 400 x 300, 4/3, 1 139 Kbps, 29.970 fps, 0.317 b/px
Аудио: ADPCM, 352 Kbps, CBR, 44.1 KHz, 2 ch.
Продолжительность: 3mn 32s
Если сдохнут ссылки пишите в личку,перезалью.
Представленный материал предназначен только для ознакомления, приобретайте фирменную продукцию.
Правила, инструкции, FAQ!!!
Торрент  Добавлен [26 мар 2019, 19:35] Скачать торрент Магнет ссылка
Скачать торрент
[ Размер 14.41 КБ / Просмотров 3 ]

Статус
Проверен 
 
Размер  345.36 МБ
Приватный: Нет (DHT включён)
.torrent скачан  0
 


     Отправить личное сообщение
   
Страница 1 из 1
Показать сообщения за:  Поле сортировки  
Начать новую тему Ответить на тему


Сейчас этот форум просматривают: нет зарегистрированных пользователей и гости: 0


Вы не можете начинать темы
Вы не можете отвечать на сообщения
Вы не можете редактировать свои сообщения
Вы не можете удалять свои сообщения
Вы не можете добавлять вложения

Перейти:  
cron