Начать новую тему Ответить на тему
Статистика раздачи
Размер: 253.55 МБ | Добавлен: 26 мар 2019, 21:05 | Скачали: 1
Сидеров: 0  [0 байт/сек]    Личеров: 0  [0 байт/сек]
Пред. тема | След. тема 

Автор
Сообщение

СообщениеДобавлено: 26 мар 2019, 21:05 

Ответить с цитатой 

LeBlanc & Carr - Midnight Light
Жанр: Pop-Rock,Soft Rock
Страна-производитель диска: USA
Год издания диска: 2009
Издатель (лейбл): Wounded Bird Records
Номер по каталогу: WOU 9521
Страна: USA
Аудиокодек: APE (*.ape)
Тип рипа: image+.cue
Битрейт аудио: lossless
Продолжительность: 00:36:40
Источник (релизер): Диск из личной коллекции
Наличие сканов в содержимом раздачи: да
Треклист:
1. Something About You
2. Falling
3. How Does It Feel (To Be In Love)
4. Midnight Light
5. Stronger Love
6. Johnny Too Bad
7. Desperado
8. Coming And Coming
9. I Need To Know
10. I Believe That We
Код:
Exact Audio Copy V0.99 prebeta 4 from 23. January 2008
Отчёт EAC об извлечении, выполненном 17. сентября 2011, 9:25
Le Blanc & Carr / Midnight Light
Дисковод: HL-DT-STDVDRAM GH20LS10   Adapter: 3  ID: 1
Режим чтения                 : Достоверность
Использование точного потока : Да
Отключение кэша аудио        : Да
Использование указателей C2  : Нет
Коррекция смещения при чтении                     : 667
Способность читать области Lead-in и Lead-out     : Нет
Заполнение пропущенных сэмплов тишиной            : Да
Удаление блоков с тишиной в начале и конце        : Нет
При вычислениях CRC использовались нулевые сэмплы : Да
Интерфейс                                         : Встроенный Win32-интерфейс для Win NT/2000
Выходной формат : Внутренние WAV-операции
Формат сэмплов  : 44.100 Гц; 16 бит; стерео
TOC извлечённого CD
     Трек |   Старт  | Длительность | Начальный сектор | Конечный сектор
    ---------------------------------------------------------------------
       1  |  0:00.00 |    3:20.61   |           0      |      15060
       2  |  3:20.61 |    3:12.17   |       15061      |      29477
       3  |  6:33.03 |    3:49.13   |       29478      |      46665
       4  | 10:22.16 |    3:34.58   |       46666      |      62773
       5  | 13:56.74 |    3:46.52   |       62774      |      79775
       6  | 17:43.51 |    3:14.05   |       79776      |      94330
       7  | 20:57.56 |    4:37.60   |       94331      |     115165
       8  | 25:35.41 |    3:09.02   |      115166      |     129342
       9  | 28:44.43 |    3:35.07   |      129343      |     145474
      10  | 32:19.50 |    4:21.02   |      145475      |     165051
Характеристики диапазона извлечения и сообщения об ошибках
Выбранный диапазон
     Имя файла D:\Lossless\LeBlanc & Carr - Midnight Light-1977\Le Blanc & Carr - Midnight Light.wav
     Пиковый уровень 95.9 %
     Качество диапазона 100.0 %
     CRC теста FD0A9A10
     CRC копии FD0A9A10
     Копирование... OK
Ошибок не произошло
AccurateRip: сводка
Трек  1  точное извлечение (доверие 2)  [892CC572]
Трек  2  точное извлечение (доверие 2)  [4CC4967D]
Трек  3  точное извлечение (доверие 2)  [D4E5619E]
Трек  4  точное извлечение (доверие 2)  [0329465F]
Трек  5  точное извлечение (доверие 2)  [8872A68C]
Трек  6  точное извлечение (доверие 2)  [AC9B56F6]
Трек  7  точное извлечение (доверие 2)  [214DB137]
Трек  8  точное извлечение (доверие 2)  [AA61F74B]
Трек  9  точное извлечение (доверие 2)  [AD6D2890]
Трек 10  точное извлечение (доверие 2)  [7C969B1B]
Все треки извлечены точно
Конец отчёта
Код:
REM GENRE Weastcoast/AOR
REM DATE 1977
REM DISCID 8208980A
REM COMMENT "ExactAudioCopy v0.99pb4"
PERFORMER "Le Blanc & Carr"
TITLE "Midnight Light"
FILE "Le Blanc & Carr - Midnight Light.wav" WAVE
  TRACK 01 AUDIO
    TITLE "Something About You"
    PERFORMER "Le Blanc & Carr"
    INDEX 01 00:00:00
  TRACK 02 AUDIO
    TITLE "Falling"
    PERFORMER "Le Blanc & Carr"
    INDEX 00 03:18:61
    INDEX 01 03:20:61
  TRACK 03 AUDIO
    TITLE "How Does It Feel"
    PERFORMER "Le Blanc & Carr"
    INDEX 00 06:31:03
    INDEX 01 06:33:03
  TRACK 04 AUDIO
    TITLE "Midnight Light"
    PERFORMER "Le Blanc & Carr"
    INDEX 00 10:20:16
    INDEX 01 10:22:16
  TRACK 05 AUDIO
    TITLE "Stronger Love"
    PERFORMER "Le Blanc & Carr"
    INDEX 00 13:54:74
    INDEX 01 13:56:74
  TRACK 06 AUDIO
    TITLE "Johnny Too Bad"
    PERFORMER "Le Blanc & Carr"
    INDEX 00 17:41:51
    INDEX 01 17:43:51
  TRACK 07 AUDIO
    TITLE "Desperado"
    PERFORMER "Le Blanc & Carr"
    INDEX 00 20:55:56
    INDEX 01 20:57:56
  TRACK 08 AUDIO
    TITLE "Coming And Going"
    PERFORMER "Le Blanc & Carr"
    INDEX 00 25:33:41
    INDEX 01 25:35:41
  TRACK 09 AUDIO
    TITLE "I Need To Know"
    PERFORMER "Le Blanc & Carr"
    INDEX 00 28:42:43
    INDEX 01 28:44:43
  TRACK 10 AUDIO
    TITLE "I Blieve That We"
    PERFORMER "Le Blanc & Carr"
    INDEX 00 32:17:50
    INDEX 01 32:19:50
Lenny LeBlanc - vocals,acoustic guitar
Pete Carr - electric & acoustic guitars,harmony vocals
Roger Clark - drums
Butch Leadford, Bob Wray - bass
Randy McCormick,Tim Henson, Clayton Ivey - keyboards
Robert Byrne - rhythm guitar on track 5
Правила, инструкции, FAQ!!!
Торрент  Добавлен [26 мар 2019, 21:05] Скачать торрент Магнет ссылка
Скачать торрент
[ Размер 20.7 КБ / Просмотров 5 ]

Статус
Проверен 
 
Размер  253.55 МБ
Приватный: Нет (DHT включён)
.torrent скачан  1
 


     Отправить личное сообщение
   
Страница 1 из 1
Показать сообщения за:  Поле сортировки  
Начать новую тему Ответить на тему


Сейчас этот форум просматривают: нет зарегистрированных пользователей и гости: 0


Вы не можете начинать темы
Вы не можете отвечать на сообщения
Вы не можете редактировать свои сообщения
Вы не можете удалять свои сообщения
Вы не можете добавлять вложения

Перейти:  
cron