Начать новую тему Ответить на тему
Статистика раздачи
Размер: 298.02 МБ | Добавлен: 26 мар 2019, 20:38 | Скачали: 2
Сидеров: 1  [0 байт/сек]    Личеров: 1  [0 байт/сек]
Пред. тема | След. тема 

Автор
Сообщение

СообщениеДобавлено: 26 мар 2019, 20:38 

Ответить с цитатой 

Larry Lee / Marooned
Жанр: pop rock, soft rock
Носитель: CD
Страна-производитель диска (релиза): Japan
Год издания: 1982
Издатель (лейбл): Sony Music
Номер по каталогу: SRCS 6135
Страна исполнителя (группы): USA
Аудиокодек: FLAC (*.flac)
Тип рипа: image+.cue
Битрейт аудио: lossless
Продолжительность: 00:39:59
Источник (релизер): собственный рип
Наличие сканов в содержимом раздачи: да
Треклист:
01. Waiting To Let Go 4:23
02. Don't Talk 3:19
03. Marooned 4:59
04. The Best Is Yet To Come 3:04
05. Number One Girl 3:30
06. Satisfaction Guaranteed (I Could Give You Love) 3:18
07. Only Seventeen 4:03
08. Hollywood 4:57
09. Just Another Girlfriend 3:14
10. Hang On 3:48
Код:
Exact Audio Copy V1.1 from 23. June 2015
Отчёт EAC об извлечении, выполненном 2. февраля 2016, 17:17
Larry Lee / Marooned
Дисковод: ASUS    DRW-24B3ST   Adapter: 0  ID: 0
Режим чтения                 : Достоверность
Использование точного потока : Да
Отключение кэша аудио        : Да
Использование указателей C2  : Нет
Коррекция смещения при чтении                     : 6
Способность читать области Lead-in и Lead-out     : Нет
Заполнение пропущенных сэмплов тишиной            : Да
Удаление блоков с тишиной в начале и конце        : Нет
При вычислениях CRC использовались нулевые сэмплы : Да
Интерфейс                                         : Установленный внешний ASPI-интерфейс
Выходной формат          : Пользовательский кодировщик
Выбранный битрейт        : 896 kBit/s
Качество                 : Высокий
Добавление ID3-тега      : Нет
Утилита сжатия           : C:\Program Files (x86)\Exact Audio Copy\FLAC\FLAC.EXE
Дополнительные параметры : -6 -V -T "ARTIST=%artist%" -T "TITLE=%title%" -T "ALBUM=%albumtitle%" -T "DATE=%year%" -T "TRACKNUMBER=%tracknr%" -T "GENRE=%genre%" -T "COMMENT=%comment%" -T "BAND=%albuminterpret%" -T "ALBUMARTIST=%albuminterpret%" -T "COMPOSER=%composer%" %haslyrics%--tag-from-file=LYRICS="%lyricsfile%"%haslyrics% -T "DISCNUMBER=%cdnumber%" -T "TOTALDISCS=%totalcds%" -T "TOTALTRACKS=%numtracks%" %hascover%--picture="%coverfile%"%hascover% %source% -o %dest%
TOC извлечённого CD
     Трек |   Старт  | Длительность | Начальный сектор | Конечный сектор
    ---------------------------------------------------------------------
       1  |  0:00.00 |    4:24.65   |           0      |      19864
       2  |  4:24.65 |    3:19.65   |       19865      |      34854
       3  |  7:44.55 |    5:02.15   |       34855      |      57519
       4  | 12:46.70 |    3:06.60   |       57520      |      71529
       5  | 15:53.55 |    3:35.32   |       71530      |      87686
       6  | 19:29.12 |    3:19.60   |       87687      |     102671
       7  | 22:48.72 |    4:05.23   |      102672      |     121069
       8  | 26:54.20 |    4:59.35   |      121070      |     143529
       9  | 31:53.55 |    3:15.62   |      143530      |     158216
      10  | 35:09.42 |    3:49.58   |      158217      |     175449
Характеристики диапазона извлечения и сообщения об ошибках
Выбранный диапазон
     Имя файла E:\Torrents\Larry Lee - 1982 - Marooned\Larry Lee - Marooned.wav
     Пиковый уровень 100.0 %
     Скорость извлечения 7.7 X
     Качество диапазона 100.0 %
     CRC теста 052E25B9
     CRC копии 052E25B9
     Копирование... OK
Ошибок не произошло
Конец отчёта
==== Контрольная сумма отчёта E512239BE08DF33AB6066AFA25199672FB4E4EACA3BE6191CA5D22EE01DB2E69 ====
Барабанщик и вокалист очень хорошей группы The Ozark Mountain Daredevils
Правила, инструкции, FAQ!!!
Торрент  Добавлен [26 мар 2019, 20:38] Скачать торрент Магнет ссылка
Скачать торрент
[ Размер 12.65 КБ / Просмотров 5 ]

Статус
Проверен 
 
Размер  298.02 МБ
Приватный: Нет (DHT включён)
.torrent скачан  2
 


     Отправить личное сообщение
   
Страница 1 из 1
Показать сообщения за:  Поле сортировки  
Начать новую тему Ответить на тему


Сейчас этот форум просматривают: нет зарегистрированных пользователей и гости: 0


Вы не можете начинать темы
Вы не можете отвечать на сообщения
Вы не можете редактировать свои сообщения
Вы не можете удалять свои сообщения
Вы не можете добавлять вложения

Перейти:  
cron