Начать новую тему Ответить на тему
Статистика раздачи
Размер: 235.59 МБ | Добавлен: 26 мар 2019, 19:53 | Скачали: 0
Сидеров: 0  [0 байт/сек]    Личеров: 0  [0 байт/сек]
Пред. тема | След. тема 

Автор
Сообщение

СообщениеДобавлено: 26 мар 2019, 19:53 

Ответить с цитатой 

Kenny - Higher Higher
Жанр: Pop-Rock, Soft-Rock
Носитель: CD
Год издания: 1992
Издатель (лейбл): Elap Music Ltd.
Номер по каталогу: 22588CD
Страна исполнителя (группы): UK
Аудиокодек: FLAC (*.flac)
Тип рипа: image+.cue
Битрейт аудио: lossless
Продолжительность: 38:57
Rip by Erik
Наличие сканов в содержимом раздачи: да
Треклист:
01. Hot Lips (2:59)
02. Higher, Higher (4:29)
03. Be My Girl (2:20)
04. Banging My Head On a Brick Wall (3:28)
05. End Of A Love Affair (3:05)
06. Go Into Hiding (3:13)
07. Red Headed Lady (2:53)
08. I'm Coming Home (3:04)
09. Make Up - Break Up (3:11)
10. Alone Together (3:19)
11. I Won't Cry (4:08)
12. You Wrote The Words (2:50)
Ещё один альбом The Best Of Kenny[/spoiler]
 
Код:
Exact Audio Copy V1.0 beta 4 from 7. December 2014
Отчёт EAC об извлечении, выполненном 5. июля 2015, 14:57
Kenny / Higher Higher
Дисковод: ASUS    DRW-24F1ST   a   Adapter: 1  ID: 0
Режим чтения                 : Достоверность
Использование точного потока : Да
Отключение кэша аудио        : Да
Использование указателей C2  : Нет
Коррекция смещения при чтении                     : 6
Способность читать области Lead-in и Lead-out     : Нет
Заполнение пропущенных сэмплов тишиной            : Да
Удаление блоков с тишиной в начале и конце        : Нет
При вычислениях CRC использовались нулевые сэмплы : Да
Интерфейс                                         : Встроенный Win32-интерфейс для Win NT/2000
Выходной формат          : Пользовательский кодировщик
Выбранный битрейт        : 128 kBit/s
Качество                 : Высокий
Добавление ID3-тега      : Нет
Утилита сжатия           : C:\Program Files\Exact Audio Copy\Flac\flac.exe
Дополнительные параметры :  -V -8 -T "Date=%year%" -T "Genre=%genre%" %source%
TOC извлечённого CD
     Трек |   Старт  | Длительность | Начальный сектор | Конечный сектор
    ---------------------------------------------------------------------
       1  |  0:00.00 |    2:59.15   |           0      |      13439
       2  |  2:59.15 |    4:28.50   |       13440      |      33589
       3  |  7:27.65 |    2:20.18   |       33590      |      44107
       4  |  9:48.08 |    3:28.17   |       44108      |      59724
       5  | 13:16.25 |    3:05.03   |       59725      |      73602
       6  | 16:21.28 |    3:12.42   |       73603      |      88044
       7  | 19:33.70 |    2:52.45   |       88045      |     100989
       8  | 22:26.40 |    3:03.73   |      100990      |     114787
       9  | 25:30.38 |    3:10.60   |      114788      |     129097
      10  | 28:41.23 |    3:18.55   |      129098      |     144002
      11  | 32:00.03 |    4:07.42   |      144003      |     162569
      12  | 36:07.45 |    2:49.50   |      162570      |     175294
Характеристики диапазона извлечения и сообщения об ошибках
Выбранный диапазон
     Имя файла C:\Users\Erik\Desktop\Kenny - Higher Higher.wav
     Пиковый уровень 100.0 %
     Скорость извлечения 2.6 X
     Качество диапазона 99.9 %
     CRC теста B97F7C98
     CRC копии B97F7C98
     Копирование... OK
Ошибок не произошло
AccurateRip: сводка
Трек  1  : извлечено точно (доверие 1)  [979497B6]  (AR v2)
Трек  2  : извлечено точно (доверие 1)  [C99C7BC3]  (AR v2)
Трек  3  : извлечено точно (доверие 1)  [6520948F]  (AR v2)
Трек  4  : извлечено точно (доверие 1)  [22B602B3]  (AR v2)
Трек  5  : извлечено точно (доверие 1)  [DB8C0465]  (AR v2)
Трек  6  : извлечено точно (доверие 1)  [C13A1AFA]  (AR v2)
Трек  7  : извлечено точно (доверие 1)  [B30E07CC]  (AR v2)
Трек  8  : извлечено точно (доверие 1)  [56B8D54C]  (AR v2)
Трек  9  : извлечено точно (доверие 1)  [A961DE2A]  (AR v2)
Трек 10  : извлечено точно (доверие 1)  [5704E604]  (AR v2)
Трек 11  : извлечено точно (доверие 1)  [E8AB46D2]  (AR v2)
Трек 12  : извлечено точно (доверие 1)  [D4B93682]  (AR v2)
Все треки извлечены точно
Конец отчёта
---- CUETools DB Plugin V2.1.4
[CTDB TOCID: J8FWfKjAAP6FAYEgkAzkHcozfyI-] disk not present in database
Submit result: J8FWfKjAAP6FAYEgkAzkHcozfyI- has been uploaded
Код:
REM GENRE Poprock
REM DATE 1992
REM DISCID AD09210C
REM COMMENT "ExactAudioCopy v1.0b4"
PERFORMER "Kenny"
TITLE "Higher Higher"
FILE "Kenny - Higher Higher.flac" WAVE
  TRACK 01 AUDIO
    TITLE "Hot Lips"
    PERFORMER "Kenny"
    INDEX 01 00:00:00
  TRACK 02 AUDIO
    TITLE "Higher, Higher"
    PERFORMER "Kenny"
    INDEX 00 02:57:15
    INDEX 01 02:59:15
  TRACK 03 AUDIO
    TITLE "Be My Girl"
    PERFORMER "Kenny"
    INDEX 00 07:25:48
    INDEX 01 07:27:65
  TRACK 04 AUDIO
    TITLE "Banging My Head On a Brick Wall"
    PERFORMER "Kenny"
    INDEX 00 09:46:15
    INDEX 01 09:48:08
  TRACK 05 AUDIO
    TITLE "End Of A Love Affair"
    PERFORMER "Kenny"
    INDEX 00 13:13:55
    INDEX 01 13:16:25
  TRACK 06 AUDIO
    TITLE "Go Into Hiding"
    PERFORMER "Kenny"
    INDEX 00 16:19:58
    INDEX 01 16:21:28
  TRACK 07 AUDIO
    TITLE "Red Headed Lady"
    PERFORMER "Kenny"
    INDEX 00 19:31:15
    INDEX 01 19:33:70
  TRACK 08 AUDIO
    TITLE "I'm Coming Home"
    PERFORMER "Kenny"
    INDEX 00 22:24:25
    INDEX 01 22:26:40
  TRACK 09 AUDIO
    TITLE "Make Up - Break Up"
    PERFORMER "Kenny"
    INDEX 00 25:28:23
    INDEX 01 25:30:38
  TRACK 10 AUDIO
    TITLE "Alone Together"
    PERFORMER "Kenny"
    INDEX 00 28:38:53
    INDEX 01 28:41:23
  TRACK 11 AUDIO
    TITLE "I Won't Cry"
    PERFORMER "Kenny"
    INDEX 00 31:57:43
    INDEX 01 32:00:03
  TRACK 12 AUDIO
    TITLE "You Wrote The Words"
    PERFORMER "Kenny"
    INDEX 00 36:05:15
    INDEX 01 36:07:45
Правила, инструкции, FAQ!!!
Торрент  Добавлен [26 мар 2019, 19:53] Скачать торрент Магнет ссылка
Скачать торрент
[ Размер 5.38 КБ / Просмотров 0 ]

Статус
Проверен 
 
Размер  235.59 МБ
Приватный: Нет (DHT включён)
.torrent скачан  0
 


     Отправить личное сообщение
   
Страница 1 из 1
Показать сообщения за:  Поле сортировки  
Начать новую тему Ответить на тему


Сейчас этот форум просматривают: нет зарегистрированных пользователей и гости: 0


Вы не можете начинать темы
Вы не можете отвечать на сообщения
Вы не можете редактировать свои сообщения
Вы не можете удалять свои сообщения
Вы не можете добавлять вложения

Перейти:  
cron