Начать новую тему Ответить на тему
Статистика раздачи
Размер: 375.81 МБ | Добавлен: 26 мар 2019, 18:55 | Скачали: 0
Сидеров: 2  [0 байт/сек]    Личеров: 1  [0 байт/сек]
Пред. тема | След. тема 

Автор
Сообщение

СообщениеДобавлено: 26 мар 2019, 18:55 

Ответить с цитатой 

Kenny Herbert And Rab Howat - Famous Faces On A Bar Room Wall
Жанр: Pop-Rock, Soft Rock
Носитель: CD
Год издания: 2008
Издатель (лейбл): David Paton Songs
Номер по каталогу: DPS4
Аудиокодек: FLAC (*.flac)
Тип рипа: image+.cue
Битрейт аудио: lossless
Продолжительность: 54:06
Rip by Erik
Наличие сканов в содержимом раздачи: да
Треклист:
01. The White Star Bar (3:56)
02. Change Your Ways (3:27)
03. The Summer Of Love (4:11)
04. Don't Stop (4:36)
05. Anne Marie (4:37)
06. Living The Dream (4:31)
07. Don't Let The World Mess You Up (4:31)
08. This Time (4:38)
09. No Looking Back (3:50)
10. Ordinary Guy (A Song For Paul) (4:39)
11. Right From Wrong (3:30)
12. This Love Is True (3:43)
13. No One (3:58)
Код:
Exact Audio Copy V1.0 beta 4 from 7. December 2014
Отчёт EAC об извлечении, выполненном 14. апреля 2015, 17:41
Kenny Herbert and Rab Howat / Famous faces on a bar room wall
Дисковод: ASUS    DRW-24F1ST   a   Adapter: 1  ID: 0
Режим чтения                 : Достоверность
Использование точного потока : Да
Отключение кэша аудио        : Да
Использование указателей C2  : Нет
Коррекция смещения при чтении                     : 6
Способность читать области Lead-in и Lead-out     : Нет
Заполнение пропущенных сэмплов тишиной            : Да
Удаление блоков с тишиной в начале и конце        : Нет
При вычислениях CRC использовались нулевые сэмплы : Да
Интерфейс                                         : Встроенный Win32-интерфейс для Win NT/2000
Выходной формат          : Пользовательский кодировщик
Выбранный битрейт        : 128 kBit/s
Качество                 : Высокий
Добавление ID3-тега      : Нет
Утилита сжатия           : C:\Program Files\Exact Audio Copy\Flac\flac.exe
Дополнительные параметры :  -V -8 -T "Date=%year%" -T "Genre=%genre%" %source%
TOC извлечённого CD
     Трек |   Старт  | Длительность | Начальный сектор | Конечный сектор
    ---------------------------------------------------------------------
       1  |  0:00.00 |    3:55.74   |           0      |      17698
       2  |  3:55.74 |    3:26.67   |       17699      |      33215
       3  |  7:22.66 |    4:11.12   |       33216      |      52052
       4  | 11:34.03 |    4:36.20   |       52053      |      72772
       5  | 16:10.23 |    4:36.55   |       72773      |      93527
       6  | 20:47.03 |    4:30.48   |       93528      |     113825
       7  | 25:17.51 |    4:30.69   |      113826      |     134144
       8  | 29:48.45 |    4:37.71   |      134145      |     154990
       9  | 34:26.41 |    3:50.37   |      154991      |     172277
      10  | 38:17.03 |    4:38.38   |      172278      |     193165
      11  | 42:55.41 |    3:30.07   |      193166      |     208922
      12  | 46:25.48 |    3:42.49   |      208923      |     225621
      13  | 50:08.22 |    3:58.12   |      225622      |     243483
Характеристики диапазона извлечения и сообщения об ошибках
Выбранный диапазон
     Имя файла C:\Users\Erik\Desktop\Kenny Herbert\Kenny Herbert and Rab Howat - Famous faces on a bar room wall.wav
     Пиковый уровень 99.5 %
     Скорость извлечения 5.6 X
     Качество диапазона 100.0 %
     CRC теста 259E9DA0
     CRC копии 259E9DA0
     Копирование... OK
Ошибок не произошло
AccurateRip: сводка
Трек  1  отсутствует в базе данных
Трек  2  отсутствует в базе данных
Трек  3  отсутствует в базе данных
Трек  4  отсутствует в базе данных
Трек  5  отсутствует в базе данных
Трек  6  отсутствует в базе данных
Трек  7  отсутствует в базе данных
Трек  8  отсутствует в базе данных
Трек  9  отсутствует в базе данных
Трек 10  отсутствует в базе данных
Трек 11  отсутствует в базе данных
Трек 12  отсутствует в базе данных
Трек 13  отсутствует в базе данных
Ни одного трека нет в базе AccurateRip
Конец отчёта
---- CUETools DB Plugin V2.1.4
[CTDB TOCID: yh1ZxR_T2AIf8V95geyKgPvG.2k-] disk not present in database
Submit result: yh1ZxR_T2AIf8V95geyKgPvG.2k- has been uploaded
Код:
REM GENRE Pop
REM DATE 2008
REM DISCID C90CAE0D
REM COMMENT "ExactAudioCopy v1.0b4"
PERFORMER "Kenny Herbert And Rab Howat"
TITLE "Famous Faces On A Bar Room Wall"
FILE "Kenny Herbert And Rab Howat - Famous Faces On A Bar Room Wall.flac" WAVE
  TRACK 01 AUDIO
    TITLE "The White Star Bar"
    PERFORMER "Kenny Herbert And Rab Howat"
    FLAGS DCP
    INDEX 01 00:00:00
  TRACK 02 AUDIO
    TITLE "Change Your Ways"
    PERFORMER "Kenny Herbert And Rab Howat"
    FLAGS DCP
    INDEX 00 03:53:74
    INDEX 01 03:55:74
  TRACK 03 AUDIO
    TITLE "The Summer Of Love"
    PERFORMER "Kenny Herbert And Rab Howat"
    FLAGS DCP
    INDEX 00 07:20:66
    INDEX 01 07:22:66
  TRACK 04 AUDIO
    TITLE "Don't Stop"
    PERFORMER "Kenny Herbert And Rab Howat"
    FLAGS DCP
    INDEX 00 11:32:03
    INDEX 01 11:34:03
  TRACK 05 AUDIO
    TITLE "Anne Marie"
    PERFORMER "Kenny Herbert And Rab Howat"
    FLAGS DCP
    INDEX 00 16:08:23
    INDEX 01 16:10:23
  TRACK 06 AUDIO
    TITLE "Living The Dream"
    PERFORMER "Kenny Herbert And Rab Howat"
    FLAGS DCP
    INDEX 00 20:45:03
    INDEX 01 20:47:03
  TRACK 07 AUDIO
    TITLE "Don't Let The World Mess You Up"
    PERFORMER "Kenny Herbert And Rab Howat"
    FLAGS DCP
    INDEX 00 25:15:51
    INDEX 01 25:17:51
  TRACK 08 AUDIO
    TITLE "This Time"
    PERFORMER "Kenny Herbert And Rab Howat"
    FLAGS DCP
    INDEX 00 29:46:45
    INDEX 01 29:48:45
  TRACK 09 AUDIO
    TITLE "No Looking Back"
    PERFORMER "Kenny Herbert And Rab Howat"
    FLAGS DCP
    INDEX 00 34:24:41
    INDEX 01 34:26:41
  TRACK 10 AUDIO
    TITLE "Ordinary Guy (A Song For Paul)"
    PERFORMER "Kenny Herbert And Rab Howat"
    FLAGS DCP
    INDEX 00 38:15:03
    INDEX 01 38:17:03
  TRACK 11 AUDIO
    TITLE "Right From Wrong"
    PERFORMER "Kenny Herbert And Rab Howat"
    FLAGS DCP
    INDEX 00 42:53:41
    INDEX 01 42:55:41
  TRACK 12 AUDIO
    TITLE "This Love Is True"
    PERFORMER "Kenny Herbert And Rab Howat"
    FLAGS DCP
    INDEX 00 46:23:48
    INDEX 01 46:25:48
  TRACK 13 AUDIO
    TITLE "No One"
    PERFORMER "Kenny Herbert And Rab Howat"
    FLAGS DCP
    INDEX 00 50:06:22
    INDEX 01 50:08:22
Код:
[CUETools log; Date: 07.07.2015 14:08:00; Version: 2.0.9]
[CTDB TOCID: yh1ZxR_T2AIf8V95geyKgPvG.2k-] found.
        [ CTDBID ] Status
        [4cdd9714] (1/1) Accurately ripped
[AccurateRip ID: 001a2df8-0106e781-c90cae0d] disk not present in database.
Track Peak [ CRC32  ] [W/O NULL] [  LOG   ]
 --   99,5 [259E9DA0] [7FC6C3C4]   CRC32
 01   99,5 [AF7C52ED] [5738C657]
 02   99,5 [57479D3C] [9058E3E4]
 03   79,0 [49B80946] [05452FD9]
 04   99,5 [A68B39F0] [7C8D283B]
 05   99,5 [8B5C0B08] [581EC06F]
 06   99,5 [39186313] [A90A1C20]
 07   70,7 [40D1595A] [36B65F0B]
 08   99,5 [E22B2FDD] [FDF634ED]
 09   99,5 [7AA49A74] [65D670FB]
 10   99,5 [0B9FB6A2] [0CD08A62]
 11   99,5 [C4CFFB6E] [477CCC7E]
 12   99,5 [D7ED4ED2] [6B948DDD]
 13   79,4 [0C7B02F9] [08F5C3A4]
Правила, инструкции, FAQ!!!
Торрент  Добавлен [26 мар 2019, 18:55] Скачать торрент Магнет ссылка
Скачать торрент
[ Размер 16.21 КБ / Просмотров 0 ]

Статус
Проверен 
 
Размер  375.81 МБ
Приватный: Нет (DHT включён)
.torrent скачан  0
 


     Отправить личное сообщение
   
Страница 1 из 1
Показать сообщения за:  Поле сортировки  
Начать новую тему Ответить на тему


Сейчас этот форум просматривают: нет зарегистрированных пользователей и гости: 0


Вы не можете начинать темы
Вы не можете отвечать на сообщения
Вы не можете редактировать свои сообщения
Вы не можете удалять свои сообщения
Вы не можете добавлять вложения

Перейти:  
cron