Начать новую тему Ответить на тему
Статистика раздачи
Размер: 1.55 ГБ | Добавлен: 26 мар 2019, 19:25 | Скачали: 2
Сидеров: 1  [0 байт/сек]    Личеров: 15  [0 байт/сек]
Пред. тема | След. тема 

Автор
Сообщение

СообщениеДобавлено: 26 мар 2019, 19:25 

Ответить с цитатой 

Kane - Студийная дискография - 5 альбомов 2001 - 2009 - 1,54 Gb
#777Жанр: Pop Rock, Soft Rock
Производитель дисков: Все диски мои личные, европейского производства
Аудио кодек: FLAC
Битрейт аудио: lossless
Extractor: EAC
Тип рипа: tracks+cue
Mode: Согласно инструкции
Лог файл EAC-log присутствует в каждом альбоме
Продолжительность: 5 cd
Краткая информация о группе:
http://en.wikipedia.org/wiki/Kane_(Dutch_band)
Горрррячие голлландские парррни выдающие качественный европейский поп-рок. Состоит из двух подельников - Marco Frank Ferdinand Woesthoff (он же - Dinand Woesthoff) на вокале, причем очень неплохом и Dennis van Martijn Leeuwen на гитаре (остальные музыканты меняются как перчатки - за существование группы сменилось 19!!! участников). Повстречались братаны Динанд и Деннис в 1999 году. Дунув как следует травы в ближайшем приморском кофе-шопе города Гаага, парни почуяли себя соответственно Боно и Эджем и начали в свободное от основной работы время лабать потихоньку то да сё. Долго не запрягали и выдали локальный дебютник каверов 1999 года, который произвел очень недурственное ощущение. Продолжив мучать каверы U2 они вошли в ражь до такой степени, что в 2000 наскребли их на целый диск. Ну ясно дело голланцы приторчали от факта, что на их земле тюльпанов, сыра, красных фонарей, клуба "Аякс" и деревянных шлепанцев - народилось что-то современнее, чем Shocking Blue.
Альбом 2001 года So Glad You Made It стал для коллектива труженников голландского села - эталонным. "Rain Down on Me" - прям жемчужина релиза, да и вообще концепция пластинки продемонстрировала недюжинный потенциал любителей сыра. И вот бы продолжать в таком же духе...Ну собственно они и продолжили - причем буквально. Два следующих альбома What If 2003 и February 2004 содержат в основном материал с So Glad You Made It 2001 с некоторыми изменениями в аранжировках, причем не всегда в лучшую сторону. Лично мне самое первое исполнение "Rain Down on Me" понравилось больше всего. Приобретя What If не глядя, я преизрядно удивился, что "песня та же - поёт она же"...Когдаж я взглянул на трек-лист February 2004, то подумал, что парни перепыхали травой и зависли совсем уж неподецки на одном месте. Ну сколькож можно эксплуатировать одно и то же - "Rain Down on Me" очуменная песнь, но на каждом альбоме этож нестерпимо... Посему покупать February (из-за двух новых песен) просто не имело смысла и в подборке его соответственно нет. Ибо нефиг.
Fearless 2005 уже к недюжей радости моей - развеял застой, началась типа перестройка и ускорение со всеми делами. Зачет альбому однозначный - как и вывод, что трава была забористая, но разум победил. Everything You Want 2008 продолжил курс на могучее выздоровление от цепей 2001. В ноябре 2009 выйдет что-то новое, как гласит их недоделанный сайт - тогда поставим окончательный диагноз.
Ну чтож вот и настало время поставить диагноз, ибо альбом 2009 No Surrender, что означает Не сдаваться типа. Общее впечатление довольно положительное, особенно от первой половины. Хлестко и изобретательно. Граждане Марихуаннии выдали приличное и не слишком обдолбанное произведение евро-рока за евро. Рекомендую короче. Прогресс музыкальной общественности краснофонарников определенно налицо.
В целом же - всеж-таки хорошие они ребята ...иначе стал бы я этих Ван Хайнекенов, мать их, покупать)))
Дискография:
#777
Exact Audio Copy V0.99 prebeta 5 from 4. May 2009
EAC extraction logfile from 1. October 2009, 2:13
Kane / So Glad You Made It
Used drive : HL-DT-STDVD-RAM GH22NS30 Adapter: 2 ID: 1
Read mode : Secure
Utilize accurate stream : Yes
Defeat audio cache : Yes
Make use of C2 pointers : No
Read offset correction : 102
Overread into Lead-In and Lead-Out : No
Fill up missing offset samples with silence : Yes
Delete leading and trailing silent blocks : No
Null samples used in CRC calculations : Yes
Used interface : Native Win32 interface for Win NT & 2000
Gap handling : Appended to previous track
Used output format : User Defined Encoder
Selected bitrate : 128 kBit/s
Quality : High
Add ID3 tag : No
Command line compressor : C:\Program Files\Exact Audio Copy\FLAC\FLAC.EXE
Additional command line options : -8 -V -T "ARTIST=%a" -T "TITLE=%t" -T "ALBUM=%g" -T "DATE=%y" -T "TRACKNUMBER=%n" -T "GENRE=%m" -T "COMMENT=EAC FLAC -8" %s
TOC of the extracted CD
Track | Start | Length | Start sector | End sector
---------------------------------------------------------
1 | 0:00.00 | 5:09.42 | 0 | 23216
2 | 5:09.42 | 4:59.68 | 23217 | 45709
3 | 10:09.35 | 5:37.12 | 45710 | 70996
4 | 15:46.47 | 4:18.28 | 70997 | 90374
5 | 20:05.00 | 5:24.35 | 90375 | 114709
6 | 25:29.35 | 7:26.42 | 114710 | 148201
7 | 32:56.02 | 0:43.13 | 148202 | 151439
8 | 33:39.15 | 6:56.57 | 151440 | 182696
9 | 40:35.72 | 4:02.20 | 182697 | 200866
10 | 44:38.17 | 5:32.40 | 200867 | 225806
11 | 50:10.57 | 5:11.40 | 225807 | 249171
12 | 55:22.22 | 9:51.15 | 249172 | 293511
Track 1
Filename C:\Documents and Settings\Администратор\Рабочий стол\Music Torrents\01. Kane - Free.wav
Pre-gap length 0:00:02.00
Peak level 98.8 %
Track quality 100.0 %
Test CRC 1E1FC68A
Copy CRC 1E1FC68A
Accurately ripped (confidence 10) [73164EBA]
Copy OK
Track 2
Filename C:\Documents and Settings\Администратор\Рабочий стол\Music Torrents\02. Kane - Rain Down On Me.wav
Peak level 98.8 %
Track quality 100.0 %
Test CRC F1259FB0
Copy CRC F1259FB0
Accurately ripped (confidence 10) [532517FC]
Copy OK
Track 3
Filename C:\Documents and Settings\Администратор\Рабочий стол\Music Torrents\03. Kane - Dead End.wav
Peak level 98.8 %
Track quality 100.0 %
Test CRC A7209B15
Copy CRC A7209B15
Accurately ripped (confidence 10) [74745257]
Copy OK
Track 4
Filename C:\Documents and Settings\Администратор\Рабочий стол\Music Torrents\04. Kane - So Glad You Made It.wav
Peak level 98.8 %
Track quality 99.9 %
Test CRC A5777894
Copy CRC A5777894
Accurately ripped (confidence 10) [1BF63B55]
Copy OK
Track 5
Filename C:\Documents and Settings\Администратор\Рабочий стол\Music Torrents\05. Kane - Let It Be.wav
Pre-gap length 0:00:01.80
Peak level 98.8 %
Track quality 100.0 %
Test CRC 1EA5E7DC
Copy CRC 1EA5E7DC
Accurately ripped (confidence 10) [B8D3DB6E]
Copy OK
Track 6
Filename C:\Documents and Settings\Администратор\Рабочий стол\Music Torrents\06. Kane - Mother.wav
Peak level 98.8 %
Track quality 100.0 %
Test CRC 267B9330
Copy CRC 267B9330
Accurately ripped (confidence 10) [7629E6EA]
Copy OK
Track 7
Filename C:\Documents and Settings\Администратор\Рабочий стол\Music Torrents\07. Kane - Stompin' At Ronnie's.wav
Peak level 81.5 %
Track quality 99.7 %
Test CRC 3CF6C237
Copy CRC 3CF6C237
Accurately ripped (confidence 10) [E8C54DE7]
Copy OK
Track 8
Filename C:\Documents and Settings\Администратор\Рабочий стол\Music Torrents\08. Kane - Hold On To The World.wav
Peak level 98.8 %
Track quality 99.9 %
Test CRC C699B9DE
Copy CRC C699B9DE
Accurately ripped (confidence 10) [8419476A]
Copy OK
Track 9
Filename C:\Documents and Settings\Администратор\Рабочий стол\Music Torrents\09. Kane - Crazy Warnings.wav
Pre-gap length 0:00:01.00
Peak level 98.8 %
Track quality 100.0 %
Test CRC E78A7C87
Copy CRC E78A7C87
Accurately ripped (confidence 10) [8CBA6B58]
Copy OK
Track 10
Filename C:\Documents and Settings\Администратор\Рабочий стол\Music Torrents\10. Kane - Our Hearts Will Beat As One.wav
Pre-gap length 0:00:01.40
Peak level 98.8 %
Track quality 100.0 %
Test CRC 5C81B3FA
Copy CRC 5C81B3FA
Accurately ripped (confidence 10) [8D1F4977]
Copy OK
Track 11
Filename C:\Documents and Settings\Администратор\Рабочий стол\Music Torrents\11. Kane - Alone.wav
Peak level 98.8 %
Track quality 100.0 %
Test CRC A148DCE7
Copy CRC A148DCE7
Accurately ripped (confidence 9) [E6566E7B]
Copy OK
Track 12
Filename C:\Documents and Settings\Администратор\Рабочий стол\Music Torrents\12. Kane - What If.wav
Peak level 98.8 %
Track quality 100.0 %
Test CRC 40814647
Copy CRC 40814647
Accurately ripped (confidence 9) [CEAC10D9]
Copy OK
All tracks accurately ripped
No errors occurred
End of status report
REM GENRE Rock
REM DATE 2001
REM DISCID 880F490C
REM COMMENT "ExactAudioCopy v0.99pb5"
PERFORMER "Kane"
TITLE "So Glad You Made It"
FILE "01. Kane - Free.wav" WAVE
TRACK 01 AUDIO
TITLE "Free"
PERFORMER "Kane"
INDEX 01 00:00:00
FILE "02. Kane - Rain Down On Me.wav" WAVE
TRACK 02 AUDIO
TITLE "Rain Down On Me"
PERFORMER "Kane"
INDEX 01 00:00:00
FILE "03. Kane - Dead End.wav" WAVE
TRACK 03 AUDIO
TITLE "Dead End"
PERFORMER "Kane"
INDEX 01 00:00:00
FILE "04. Kane - So Glad You Made It.wav" WAVE
TRACK 04 AUDIO
TITLE "So Glad You Made It"
PERFORMER "Kane"
INDEX 01 00:00:00
TRACK 05 AUDIO
TITLE "Let It Be"
PERFORMER "Kane"
INDEX 00 04:16:43
FILE "05. Kane - Let It Be.wav" WAVE
INDEX 01 00:00:00
FILE "06. Kane - Mother.wav" WAVE
TRACK 06 AUDIO
TITLE "Mother"
PERFORMER "Kane"
INDEX 01 00:00:00
FILE "07. Kane - Stompin' At Ronnie's.wav" WAVE
TRACK 07 AUDIO
TITLE "Stompin' At Ronnie's"
PERFORMER "Kane"
INDEX 01 00:00:00
FILE "08. Kane - Hold On To The World.wav" WAVE
TRACK 08 AUDIO
TITLE "Hold On To The World"
PERFORMER "Kane"
INDEX 01 00:00:00
TRACK 09 AUDIO
TITLE "Crazy Warnings"
PERFORMER "Kane"
INDEX 00 06:55:57
FILE "09. Kane - Crazy Warnings.wav" WAVE
INDEX 01 00:00:00
TRACK 10 AUDIO
TITLE "Our Hearts Will Beat As One"
PERFORMER "Kane"
INDEX 00 04:00:65
FILE "10. Kane - Our Hearts Will Beat As One.wav" WAVE
INDEX 01 00:00:00
FILE "11. Kane - Alone.wav" WAVE
TRACK 11 AUDIO
TITLE "Alone"
PERFORMER "Kane"
INDEX 01 00:00:00
FILE "12. Kane - What If.wav" WAVE
TRACK 12 AUDIO
TITLE "What If"
PERFORMER "Kane"
INDEX 01 00:00:00
1. Free 5:09
2. Rain Down On Me 4:59
3. Dead End 5:37
4. So Glad You Made It 4:18
5. Let It Be 5:24
6. Mother 7:26
7. Stompin' At Ronnie's 0:43
8. Hold On To The World 6:56
9. Crazy Warnings 4:02
10. Our Hearts Will Beat As One 5:32
11. Alone 5:11
12. What If 9:51
#777
EAC extraction logfile from 2. October 2009, 11:49 for CD
Kane / What if
Used drive : HL-DT-STDVD-RAM GH22NS30 Adapter: 2 ID: 1
Read mode : Secure with NO C2, accurate stream, disable cache
Read offset correction : 102
Overread into Lead-In and Lead-Out : No
Used output format : C:\Program Files\Exact Audio Copy\FLAC\FLAC.EXE (User Defined Encoder)
128 kBit/s
Additional command line options : -8 -V -T "ARTIST=%a" -T "TITLE=%t" -T "ALBUM=%g" -T "DATE=%y" -T "TRACKNUMBER=%n" -T "GENRE=%m" -T "COMMENT=EAC FLAC -8" %s
Other options :
Fill up missing offset samples with silence : Yes
Delete leading and trailing silent blocks : No
Native Win32 interface for Win NT & 2000
Track 1
Filename C:\Documents and Settings\Администратор\Рабочий стол\Music Torrents\01. Kane - Rain down on me.wav
Pre-gap length 0:00:02.00
Peak level 100.0 %
Track quality 100.0 %
Test CRC DAF7EFE6
Copy CRC DAF7EFE6
Copy OK
Track 2
Filename C:\Documents and Settings\Администратор\Рабочий стол\Music Torrents\02. Kane - My best wasn't good enough.wav
Pre-gap length 0:00:00.66
Peak level 100.0 %
Track quality 99.9 %
Test CRC 5B777016
Copy CRC 5B777016
Copy OK
Track 3
Filename C:\Documents and Settings\Администратор\Рабочий стол\Music Torrents\03. Kane - So glad you made it.wav
Peak level 100.0 %
Track quality 100.0 %
Test CRC 5AED7C66
Copy CRC 5AED7C66
Copy OK
Track 4
Filename C:\Documents and Settings\Администратор\Рабочий стол\Music Torrents\04. Kane - Damn those eyes.wav
Pre-gap length 0:00:00.80
Peak level 100.0 %
Track quality 100.0 %
Test CRC 66032A74
Copy CRC 66032A74
Copy OK
Track 5
Filename C:\Documents and Settings\Администратор\Рабочий стол\Music Torrents\05. Kane - Can you handle me.wav
Pre-gap length 0:00:00.70
Peak level 100.0 %
Track quality 100.0 %
Test CRC 14803CFF
Copy CRC 14803CFF
Copy OK
Track 6
Filename C:\Documents and Settings\Администратор\Рабочий стол\Music Torrents\06. Kane - Let it be.wav
Peak level 100.0 %
Track quality 100.0 %
Test CRC EA70B047
Copy CRC EA70B047
Copy OK
Track 7
Filename C:\Documents and Settings\Администратор\Рабочий стол\Music Torrents\07. Kane - Head down.wav
Pre-gap length 0:00:00.61
Peak level 100.0 %
Track quality 100.0 %
Test CRC 1B8BB3D6
Copy CRC 1B8BB3D6
Copy OK
Track 8
Filename C:\Documents and Settings\Администратор\Рабочий стол\Music Torrents\08. Kane - Mother.wav
Peak level 100.0 %
Track quality 99.9 %
Test CRC D09F2286
Copy CRC D09F2286
Copy OK
Track 9
Filename C:\Documents and Settings\Администратор\Рабочий стол\Music Torrents\09. Kane - Hold on to the world.wav
Peak level 100.0 %
Track quality 100.0 %
Test CRC DA7780E9
Copy CRC DA7780E9
Copy OK
Track 10
Filename C:\Documents and Settings\Администратор\Рабочий стол\Music Torrents\10. Kane - Before you let me go.wav
Peak level 100.0 %
Track quality 100.0 %
Test CRC 677BB69E
Copy CRC 677BB69E
Copy OK
Track 11
Filename C:\Documents and Settings\Администратор\Рабочий стол\Music Torrents\11. Kane - Our hearts will beat as one.wav
Peak level 100.0 %
Track quality 100.0 %
Test CRC 4B90CED1
Copy CRC 4B90CED1
Copy OK
Track 12
Filename C:\Documents and Settings\Администратор\Рабочий стол\Music Torrents\12. Kane - Rain down on me (dj-Tiesto remix).wav
Pre-gap length 0:00:03.89
Peak level 100.0 %
Track quality 100.0 %
Test CRC 0A5DE3FD
Copy CRC 0A5DE3FD
Copy OK
No errors occured
End of status report
REM GENRE Rock
REM DATE 2004
REM DISCID AF11560D
REM COMMENT "ExactAudioCopy v0.95b3"
PERFORMER "Kane"
TITLE "What if"
FILE "01. Kane - Rain down on me.wav" WAVE
TRACK 01 AUDIO
TITLE "Rain down on me"
PERFORMER "Kane"
INDEX 01 00:00:00
TRACK 02 AUDIO
TITLE "My best wasn't good enough"
PERFORMER "Kane"
INDEX 00 04:06:65
FILE "02. Kane - My best wasn't good enough.wav" WAVE
INDEX 01 00:00:00
FILE "03. Kane - So glad you made it.wav" WAVE
TRACK 03 AUDIO
TITLE "So glad you made it"
PERFORMER "Kane"
INDEX 01 00:00:00
TRACK 04 AUDIO
TITLE "Damn those eyes"
PERFORMER "Kane"
INDEX 00 03:25:52
FILE "04. Kane - Damn those eyes.wav" WAVE
INDEX 01 00:00:00
TRACK 05 AUDIO
TITLE "Can you handle me"
PERFORMER "Kane"
INDEX 00 03:59:30
FILE "05. Kane - Can you handle me.wav" WAVE
INDEX 01 00:00:00
FILE "06. Kane - Let it be.wav" WAVE
TRACK 06 AUDIO
TITLE "Let it be"
PERFORMER "Kane"
INDEX 01 00:00:00
TRACK 07 AUDIO
TITLE "Head down"
PERFORMER "Kane"
INDEX 00 03:43:17
FILE "07. Kane - Head down.wav" WAVE
INDEX 01 00:00:00
FILE "08. Kane - Mother.wav" WAVE
TRACK 08 AUDIO
TITLE "Mother"
PERFORMER "Kane"
INDEX 01 00:00:00
FILE "09. Kane - Hold on to the world.wav" WAVE
TRACK 09 AUDIO
TITLE "Hold on to the world"
PERFORMER "Kane"
INDEX 01 00:00:00
FILE "10. Kane - Before you let me go.wav" WAVE
TRACK 10 AUDIO
TITLE "Before you let me go"
PERFORMER "Kane"
INDEX 01 00:00:00
FILE "11. Kane - Our hearts will beat as one.wav" WAVE
TRACK 11 AUDIO
TITLE "Our hearts will beat as one"
PERFORMER "Kane"
INDEX 01 00:00:00
TRACK 12 AUDIO
TITLE "Rain down on me (dj-Tiesto remix)"
PERFORMER "Kane"
INDEX 00 05:34:25
FILE "12. Kane - Rain down on me (dj-Tiesto remix).wav" WAVE
INDEX 01 00:00:00
1. Rain Down On Me 4:07
2. My Best Wasnt Good Enough 3:16
3. So Glad You Made It 3:26
4. Damn Those Eyes 4:00
5. Can You Handle Me 3:10
6. Let It Be 3:43
7. Head Down 4:03
8. Mother 4:16
9. Hold On To The World 3:32
10. Before You Let Me Go 4:12
11. Our Hearts Will Beat As One 5:38
12. Rain Down On Me (Tieso Remix) 7:00
#777
Exact Audio Copy V0.99 prebeta 5 from 4. May 2009
EAC extraction logfile from 2. October 2009, 15:36
Kane / Fearless
Used drive : HL-DT-STDVD-RAM GH22NS30 Adapter: 2 ID: 1
Read mode : Secure
Utilize accurate stream : Yes
Defeat audio cache : Yes
Make use of C2 pointers : No
Read offset correction : 102
Overread into Lead-In and Lead-Out : No
Fill up missing offset samples with silence : Yes
Delete leading and trailing silent blocks : No
Null samples used in CRC calculations : Yes
Used interface : Native Win32 interface for Win NT & 2000
Gap handling : Appended to previous track
Used output format : User Defined Encoder
Selected bitrate : 128 kBit/s
Quality : High
Add ID3 tag : No
Command line compressor : C:\Program Files\Exact Audio Copy\FLAC\FLAC.EXE
Additional command line options : -8 -V -T "ARTIST=%a" -T "TITLE=%t" -T "ALBUM=%g" -T "DATE=%y" -T "TRACKNUMBER=%n" -T "GENRE=%m" -T "COMMENT=EAC FLAC -8" %s
TOC of the extracted CD
Track | Start | Length | Start sector | End sector
---------------------------------------------------------
1 | 0:00.00 | 2:09.60 | 0 | 9734
2 | 2:09.60 | 3:29.02 | 9735 | 25411
3 | 5:38.62 | 3:57.23 | 25412 | 43209
4 | 9:36.10 | 3:39.65 | 43210 | 59699
5 | 13:16.00 | 3:02.10 | 59700 | 73359
6 | 16:18.10 | 3:02.17 | 73360 | 87026
7 | 19:20.27 | 4:32.28 | 87027 | 107454
8 | 23:52.55 | 1:32.67 | 107455 | 114421
9 | 25:25.47 | 5:22.53 | 114422 | 138624
10 | 30:48.25 | 3:01.10 | 138625 | 152209
11 | 33:49.35 | 4:29.57 | 152210 | 172441
12 | 38:19.17 | 4:23.73 | 172442 | 192239
13 | 42:43.15 | 2:42.70 | 192240 | 204459
Track 1
Filename C:\Documents and Settings\Администратор\Рабочий стол\Music Torrents\01. Kane - Go.wav
Pre-gap length 0:00:02.00
Peak level 77.7 %
Track quality 100.0 %
Test CRC 362FB247
Copy CRC 362FB247
Accurately ripped (confidence 17) [6F0E7BEE]
Copy OK
Track 2
Filename C:\Documents and Settings\Администратор\Рабочий стол\Music Torrents\02. Kane - Something To Say.wav
Peak level 99.8 %
Track quality 100.0 %
Test CRC 93EB78AC
Copy CRC 93EB78AC
Accurately ripped (confidence 17) [17BD9FE0]
Copy OK
Track 3
Filename C:\Documents and Settings\Администратор\Рабочий стол\Music Torrents\03. Kane - Don't Let It Pass You By.wav
Pre-gap length 0:00:00.96
Peak level 99.8 %
Track quality 100.0 %
Test CRC 29ABC647
Copy CRC 29ABC647
Accurately ripped (confidence 17) [EAC3FBD0]
Copy OK
Track 4
Filename C:\Documents and Settings\Администратор\Рабочий стол\Music Torrents\04. Kane - Faith.wav
Peak level 99.0 %
Track quality 100.0 %
Test CRC 302F23A4
Copy CRC 302F23A4
Accurately ripped (confidence 17) [3ADAA014]
Copy OK
Track 5
Filename C:\Documents and Settings\Администратор\Рабочий стол\Music Torrents\05. Kane - All I Can Do.wav
Pre-gap length 0:00:00.24
Peak level 97.0 %
Track quality 100.0 %
Test CRC E8B352CA
Copy CRC E8B352CA
Accurately ripped (confidence 17) [F2FCBF80]
Copy OK
Track 6
Filename C:\Documents and Settings\Администратор\Рабочий стол\Music Torrents\06. Kane - Believe It.wav
Peak level 99.0 %
Track quality 100.0 %
Test CRC 131DCECE
Copy CRC 131DCECE
Accurately ripped (confidence 17) [4B28EE76]
Copy OK
Track 7
Filename C:\Documents and Settings\Администратор\Рабочий стол\Music Torrents\07. Kane - Solitary Madness.wav
Peak level 99.8 %
Track quality 100.0 %
Test CRC 918ADBC0
Copy CRC 918ADBC0
Accurately ripped (confidence 17) [4F0CA3CF]
Copy OK
Track 8
Filename C:\Documents and Settings\Администратор\Рабочий стол\Music Torrents\08. Kane - Senang.wav
Pre-gap length 0:00:01.44
Peak level 96.4 %
Track quality 100.0 %
Test CRC F74BF117
Copy CRC F74BF117
Accurately ripped (confidence 17) [3EBB6395]
Copy OK
Track 9
Filename C:\Documents and Settings\Администратор\Рабочий стол\Music Torrents\09. Kane - Master Of The Game.wav
Peak level 98.3 %
Track quality 100.0 %
Test CRC 7802F74A
Copy CRC 7802F74A
Accurately ripped (confidence 17) [F9307509]
Copy OK
Track 10
Filename C:\Documents and Settings\Администратор\Рабочий стол\Music Torrents\10. Kane - Way Down Inside.wav
Peak level 97.7 %
Track quality 100.0 %
Test CRC 6C8473C0
Copy CRC 6C8473C0
Accurately ripped (confidence 17) [4246FEDE]
Copy OK
Track 11
Filename C:\Documents and Settings\Администратор\Рабочий стол\Music Torrents\11. Kane - Fearless.wav
Pre-gap length 0:00:00.44
Peak level 97.9 %
Track quality 100.0 %
Test CRC E3326687
Copy CRC E3326687
Accurately ripped (confidence 16) [8EF035B7]
Copy OK
Track 12
Filename C:\Documents and Settings\Администратор\Рабочий стол\Music Torrents\12. Kane - Love For The Sake Of Life.wav
Pre-gap length 0:00:00.29
Peak level 98.7 %
Track quality 99.9 %
Test CRC DCBD5C96
Copy CRC DCBD5C96
Accurately ripped (confidence 16) [C784FDF5]
Copy OK
Track 13
Filename C:\Documents and Settings\Администратор\Рабочий стол\Music Torrents\13. Kane - Dreamer.wav
Pre-gap length 0:00:02.97
Peak level 97.1 %
Track quality 100.0 %
Test CRC D30AF287
Copy CRC D30AF287
Accurately ripped (confidence 17) [CCFD860D]
Copy OK
All tracks accurately ripped
No errors occurred
End of status report
REM GENRE Pop
REM DATE 2005
REM DISCID 9C0AA60D
REM COMMENT "ExactAudioCopy v0.99pb5"
PERFORMER "Kane"
TITLE "Fearless"
FILE "01. Kane - Go.wav" WAVE
TRACK 01 AUDIO
TITLE "Go"
PERFORMER "Kane"
INDEX 01 00:00:00
FILE "02. Kane - Something To Say.wav" WAVE
TRACK 02 AUDIO
TITLE "Something To Say"
PERFORMER "Kane"
INDEX 01 00:00:00
TRACK 03 AUDIO
TITLE "Don't Let It Pass You By"
PERFORMER "Kane"
INDEX 00 03:28:05
FILE "03. Kane - Don't Let It Pass You By.wav" WAVE
INDEX 01 00:00:00
FILE "04. Kane - Faith.wav" WAVE
TRACK 04 AUDIO
TITLE "Faith"
PERFORMER "Kane"
INDEX 01 00:00:00
TRACK 05 AUDIO
TITLE "All I Can Do"
PERFORMER "Kane"
INDEX 00 03:39:47
FILE "05. Kane - All I Can Do.wav" WAVE
INDEX 01 00:00:00
FILE "06. Kane - Believe It.wav" WAVE
TRACK 06 AUDIO
TITLE "Believe It"
PERFORMER "Kane"
INDEX 01 00:00:00
FILE "07. Kane - Solitary Madness.wav" WAVE
TRACK 07 AUDIO
TITLE "Solitary Madness"
PERFORMER "Kane"
INDEX 01 00:00:00
TRACK 08 AUDIO
TITLE "Senang"
PERFORMER "Kane"
INDEX 00 04:30:70
FILE "08. Kane - Senang.wav" WAVE
INDEX 01 00:00:00
FILE "09. Kane - Master Of The Game.wav" WAVE
TRACK 09 AUDIO
TITLE "Master Of The Game"
PERFORMER "Kane"
INDEX 01 00:00:00
FILE "10. Kane - Way Down Inside.wav" WAVE
TRACK 10 AUDIO
TITLE "Way Down Inside"
PERFORMER "Kane"
INDEX 01 00:00:00
TRACK 11 AUDIO
TITLE "Fearless"
PERFORMER "Kane"
INDEX 00 03:00:52
FILE "11. Kane - Fearless.wav" WAVE
INDEX 01 00:00:00
TRACK 12 AUDIO
TITLE "Love For The Sake Of Life"
PERFORMER "Kane"
INDEX 00 04:29:35
FILE "12. Kane - Love For The Sake Of Life.wav" WAVE
INDEX 01 00:00:00
TRACK 13 AUDIO
TITLE "Dreamer"
PERFORMER "Kane"
INDEX 00 04:21:00
FILE "13. Kane - Dreamer.wav" WAVE
INDEX 01 00:00:00
1. Go 2:09
2. Something To Say 3:29
3. Don't Let It Pass You By 3:57
4. Faith 3:39
5. All I Can Do 3:02
6. Believe It 3:02
7. Solitary Madness 4:32
8. Senang 1:32
9. Master Of The Game 5:22
10. Way Down Inside 3:01
11. Fearless 4:29
12. Love For The Sake Of Life 4:23
13. Dreamer 2:43
#777
Exact Audio Copy V0.99 prebeta 5 from 4. May 2009
EAC extraction logfile from 2. October 2009, 23:28
Kane / Everythink You Want
Used drive : HL-DT-STDVD-RAM GH22NS30 Adapter: 2 ID: 1
Read mode : Secure
Utilize accurate stream : Yes
Defeat audio cache : Yes
Make use of C2 pointers : No
Read offset correction : 102
Overread into Lead-In and Lead-Out : No
Fill up missing offset samples with silence : Yes
Delete leading and trailing silent blocks : No
Null samples used in CRC calculations : Yes
Used interface : Native Win32 interface for Win NT & 2000
Gap handling : Appended to previous track
Used output format : User Defined Encoder
Selected bitrate : 128 kBit/s
Quality : High
Add ID3 tag : No
Command line compressor : C:\Program Files\Exact Audio Copy\FLAC\FLAC.EXE
Additional command line options : -8 -V -T "ARTIST=%a" -T "TITLE=%t" -T "ALBUM=%g" -T "DATE=%y" -T "TRACKNUMBER=%n" -T "GENRE=%m" -T "COMMENT=EAC FLAC -8" %s
TOC of the extracted CD
Track | Start | Length | Start sector | End sector
---------------------------------------------------------
1 | 0:00.00 | 2:54.32 | 0 | 13081
2 | 2:54.32 | 3:47.60 | 13082 | 30166
3 | 6:42.17 | 3:08.35 | 30167 | 44301
4 | 9:50.52 | 2:44.30 | 44302 | 56631
5 | 12:35.07 | 3:27.08 | 56632 | 72164
6 | 16:02.15 | 3:41.45 | 72165 | 88784
7 | 19:43.60 | 3:42.47 | 88785 | 105481
8 | 23:26.32 | 1:45.55 | 105482 | 113411
9 | 25:12.12 | 3:30.45 | 113412 | 129206
10 | 28:42.57 | 3:12.45 | 129207 | 143651
11 | 31:55.27 | 3:36.50 | 143652 | 159901
12 | 35:32.02 | 5:20.56 | 159902 | 183957
13 | 43:24.58 | 6:36.61 | 195358 | 225118
Track 1
Filename C:\Documents and Settings\Администратор\Рабочий стол\Music Torrents\01. Kane - Catwalk Criminal.wav
Pre-gap length 0:00:02.00
Peak level 100.0 %
Track quality 100.0 %
Test CRC 02545AE1
Copy CRC 02545AE1
Accurately ripped (confidence 5) [A2AF3172]
Copy OK
Track 2
Filename C:\Documents and Settings\Администратор\Рабочий стол\Music Torrents\02. Kane - Wanna Make It Happen.wav
Pre-gap length 0:00:01.16
Peak level 100.0 %
Track quality 99.9 %
Test CRC A3B99F7D
Copy CRC A3B99F7D
Accurately ripped (confidence 5) [308DC058]
Copy OK
Track 3
Filename C:\Documents and Settings\Администратор\Рабочий стол\Music Torrents\03. Kane - Shot Of A Gun.wav
Pre-gap length 0:00:01.53
Peak level 100.0 %
Track quality 100.0 %
Test CRC 483474AA
Copy CRC 483474AA
Accurately ripped (confidence 5) [EBEDC1AD]
Copy OK
Track 4
Filename C:\Documents and Settings\Администратор\Рабочий стол\Music Torrents\04. Kane - Yeah Yeah Yeah.wav
Pre-gap length 0:00:01.08
Peak level 100.0 %
Track quality 100.0 %
Test CRC 393886AC
Copy CRC 393886AC
Accurately ripped (confidence 5) [C0C05280]
Copy OK
Track 5
Filename C:\Documents and Settings\Администратор\Рабочий стол\Music Torrents\05. Kane - Everything You Want.wav
Pre-gap length 0:00:00.38
Peak level 100.0 %
Track quality 100.0 %
Test CRC C96446FB
Copy CRC C96446FB
Accurately ripped (confidence 5) [DEF10372]
Copy OK
Track 6
Filename C:\Documents and Settings\Администратор\Рабочий стол\Music Torrents\06. Kane - It's London Calling.wav
Pre-gap length 0:00:01.22
Peak level 100.0 %
Track quality 100.0 %
Test CRC 04143F31
Copy CRC 04143F31
Accurately ripped (confidence 5) [4974FD9D]
Copy OK
Track 7
Filename C:\Documents and Settings\Администратор\Рабочий стол\Music Torrents\07. Kane - R.E.A.L..wav
Pre-gap length 0:00:00.06
Peak level 98.8 %
Track quality 100.0 %
Test CRC 3F628D99
Copy CRC 3F628D99
Accurately ripped (confidence 5) [50CBC6E7]
Copy OK
Track 8
Filename C:\Documents and Settings\Администратор\Рабочий стол\Music Torrents\08. Kane - Somewhere Close.wav
Pre-gap length 0:00:00.38
Peak level 100.0 %
Track quality 100.0 %
Test CRC 7D130215
Copy CRC 7D130215
Accurately ripped (confidence 5) [B7F26DF2]
Copy OK
Track 9
Filename C:\Documents and Settings\Администратор\Рабочий стол\Music Torrents\09. Kane - NYC Soul.wav
Peak level 98.8 %
Track quality 100.0 %
Test CRC CD996D1D
Copy CRC CD996D1D
Accurately ripped (confidence 5) [79FD33ED]
Copy OK
Track 10
Filename C:\Documents and Settings\Администратор\Рабочий стол\Music Torrents\10. Kane - Tough.wav
Peak level 100.0 %
Track quality 99.9 %
Test CRC 884864CF
Copy CRC 884864CF
Accurately ripped (confidence 5) [BAA759CB]
Copy OK
Track 11
Filename C:\Documents and Settings\Администратор\Рабочий стол\Music Torrents\11. Kane - Are You Feeling It .wav
Pre-gap length 0:00:01.54
Peak level 97.7 %
Track quality 100.0 %
Test CRC 028EB75C
Copy CRC 028EB75C
Accurately ripped (confidence 5) [7C5FEE53]
Copy OK
Track 12
Filename C:\Documents and Settings\Администратор\Рабочий стол\Music Torrents\12. Kane - I Belong To You.wav
Pre-gap length 0:00:01.25
Peak level 100.0 %
Track quality 100.0 %
Test CRC 8E76CB00
Copy CRC 8E76CB00
Accurately ripped (confidence 5) [9A8144B5]
Copy OK
All tracks accurately ripped
No errors occurred
End of status report
REM GENRE Rock
REM DATE 2008
REM DISCID AD0BB90D
REM COMMENT "ExactAudioCopy v0.99pb5"
PERFORMER "Kane"
TITLE "Everythink You Want"
FILE "01. Kane - Catwalk Criminal.wav" WAVE
TRACK 01 AUDIO
TITLE "Catwalk Criminal"
PERFORMER "Kane"
INDEX 01 00:00:00
TRACK 02 AUDIO
TITLE "Wanna Make It Happen"
PERFORMER "Kane"
INDEX 00 02:53:20
FILE "02. Kane - Wanna Make It Happen.wav" WAVE
INDEX 01 00:00:00
TRACK 03 AUDIO
TITLE "Shot Of A Gun"
PERFORMER "Kane"
INDEX 00 03:46:20
FILE "03. Kane - Shot Of A Gun.wav" WAVE
INDEX 01 00:00:00
TRACK 04 AUDIO
TITLE "Yeah Yeah Yeah"
PERFORMER "Kane"
INDEX 00 03:07:29
FILE "04. Kane - Yeah Yeah Yeah.wav" WAVE
INDEX 01 00:00:00
TRACK 05 AUDIO
TITLE "Everything You Want"
PERFORMER "Kane"
INDEX 00 02:44:01
FILE "05. Kane - Everything You Want.wav" WAVE
INDEX 01 00:00:00
TRACK 06 AUDIO
TITLE "It's London Calling"
PERFORMER "Kane"
INDEX 00 03:25:66
FILE "06. Kane - It's London Calling.wav" WAVE
INDEX 01 00:00:00
TRACK 07 AUDIO
TITLE "R.E.A.L."
PERFORMER "Kane"
INDEX 00 03:41:40
FILE "07. Kane - R.E.A.L..wav" WAVE
INDEX 01 00:00:00
TRACK 08 AUDIO
TITLE "Somewhere Close"
PERFORMER "Kane"
INDEX 00 03:42:18
FILE "08. Kane - Somewhere Close.wav" WAVE
INDEX 01 00:00:00
FILE "09. Kane - NYC Soul.wav" WAVE
TRACK 09 AUDIO
TITLE "NYC Soul"
PERFORMER "Kane"
INDEX 01 00:00:00
FILE "10. Kane - Tough.wav" WAVE
TRACK 10 AUDIO
TITLE "Tough"
PERFORMER "Kane"
INDEX 01 00:00:00
TRACK 11 AUDIO
TITLE "Are You Feeling It?"
PERFORMER "Kane"
INDEX 00 03:11:04
FILE "11. Kane - Are You Feeling It .wav" WAVE
INDEX 01 00:00:00
TRACK 12 AUDIO
TITLE "I Belong To You"
PERFORMER "Kane"
INDEX 00 03:35:31
FILE "12. Kane - I Belong To You.wav" WAVE
INDEX 01 00:00:00
TRACK 13 MODEx/2xxx
TITLE "Kane / DataTrack"
PERFORMER "Kane"
INDEX 00 05:20:56
1. Catwalk Criminal 2:54
2. Wanna Make It Happen 3:47
3. Shot Of A Gun 3:08
4. Yeah Yeah Yeah 2:44
5. Everything You Want 3:27
6. It's London Calling 3:41
7. R.E.A.L. 3:42
8. Somewhere Close 1:45
9. NYC Soul 3:30
10. Tough 3:12
11. Are You Feeling It? 3:36
12. I Belong To You 5:18
13. Unknown Track 3:07
#777
Exact Audio Copy V0.99 prebeta 5 from 4. May 2009
EAC extraction logfile from 21. April 2010, 23:26
Kane / No Surrender
Used drive : HL-DT-STDVD-RAM GH22NS30 Adapter: 0 ID: 1
Read mode : Secure
Utilize accurate stream : Yes
Defeat audio cache : Yes
Make use of C2 pointers : No
Read offset correction : 102
Overread into Lead-In and Lead-Out : No
Fill up missing offset samples with silence : Yes
Delete leading and trailing silent blocks : No
Null samples used in CRC calculations : Yes
Used interface : Native Win32 interface for Win NT & 2000
Gap handling : Appended to previous track
Used output format : User Defined Encoder
Selected bitrate : 768 kBit/s
Quality : High
Add ID3 tag : No
Command line compressor : C:\Program Files\Exact Audio Copy\FLAC\FLAC.EXE
Additional command line options : -6 -V -T "ARTIST=%a" -T "TITLE=%t" -T "ALBUM=%g" -T "DATE=%y" -T "TRACKNUMBER=%n" -T "GENRE=%m" -T "COMMENT=%e" %s -o %d
TOC of the extracted CD
Track | Start | Length | Start sector | End sector
---------------------------------------------------------
1 | 0:00.00 | 3:05.36 | 0 | 13910
2 | 3:05.36 | 3:23.47 | 13911 | 29182
3 | 6:29.08 | 3:03.72 | 29183 | 42979
4 | 9:33.05 | 3:45.64 | 42980 | 59918
5 | 13:18.69 | 3:12.51 | 59919 | 74369
6 | 16:31.45 | 2:57.32 | 74370 | 87676
7 | 19:29.02 | 3:34.23 | 87677 | 103749
8 | 23:03.25 | 2:58.04 | 103750 | 117103
9 | 26:01.29 | 4:15.18 | 117104 | 136246
10 | 30:16.47 | 4:35.26 | 136247 | 156897
11 | 34:51.73 | 4:57.55 | 156898 | 179227
Track 1
Filename D:\KINGSTON\АНГАР\макс_логистик\Мои документы\Making\01. No Surrender.wav
Pre-gap length 0:00:02.00
Peak level 100.0 %
Track quality 100.0 %
Test CRC 39A52467
Copy CRC 39A52467
Accurately ripped (confidence 3) [4968DB06]
Copy OK
Track 2
Filename D:\KINGSTON\АНГАР\макс_логистик\Мои документы\Making\02. A Little Something.wav
Peak level 100.0 %
Track quality 100.0 %
Test CRC 47C0B716
Copy CRC 47C0B716
Accurately ripped (confidence 3) [FB0F9261]
Copy OK
Track 3
Filename D:\KINGSTON\АНГАР\макс_логистик\Мои документы\Making\03. Point Blank.wav
Peak level 99.7 %
Track quality 99.9 %
Test CRC DE3700AA
Copy CRC DE3700AA
Accurately ripped (confidence 3) [420DB852]
Copy OK
Track 4
Filename D:\KINGSTON\АНГАР\макс_логистик\Мои документы\Making\04. Devil In me.wav
Peak level 99.7 %
Track quality 100.0 %
Test CRC 61A01FCB
Copy CRC 61A01FCB
Accurately ripped (confidence 3) [D5D5BA47]
Copy OK
Track 5
Filename D:\KINGSTON\АНГАР\макс_логистик\Мои документы\Making\05. In Over My Head.wav
Peak level 100.0 %
Track quality 100.0 %
Test CRC FB4718F2
Copy CRC FB4718F2
Accurately ripped (confidence 3) [F953924B]
Copy OK
Track 6
Filename D:\KINGSTON\АНГАР\макс_логистик\Мои документы\Making\06. Heartbeat.wav
Peak level 100.0 %
Track quality 100.0 %
Test CRC BDB77F58
Copy CRC BDB77F58
Accurately ripped (confidence 3) [5992C30F]
Copy OK
Track 7
Filename D:\KINGSTON\АНГАР\макс_логистик\Мои документы\Making\07. Dogma 2.0.wav
Peak level 100.0 %
Track quality 100.0 %
Test CRC 5525832D
Copy CRC 5525832D
Accurately ripped (confidence 3) [03807DA2]
Copy OK
Track 8
Filename D:\KINGSTON\АНГАР\макс_логистик\Мои документы\Making\08. Scream.wav
Peak level 100.0 %
Track quality 100.0 %
Test CRC 1CA0A7F7
Copy CRC 1CA0A7F7
Accurately ripped (confidence 3) [598D3F92]
Copy OK
Track 9
Filename D:\KINGSTON\АНГАР\макс_логистик\Мои документы\Making\09. Love Over Healing.wav
Peak level 100.0 %
Track quality 100.0 %
Test CRC C1C7820B
Copy CRC C1C7820B
Accurately ripped (confidence 3) [D292766E]
Copy OK
Track 10
Filename D:\KINGSTON\АНГАР\макс_логистик\Мои документы\Making\10. Here Comes The End.wav
Peak level 100.0 %
Track quality 100.0 %
Test CRC 48E32540
Copy CRC 48E32540
Accurately ripped (confidence 3) [4F95FF5A]
Copy OK
Track 11
Filename D:\KINGSTON\АНГАР\макс_логистик\Мои документы\Making\11. High Places.wav
Peak level 98.8 %
Track quality 100.0 %
Test CRC 85C45BB5
Copy CRC 85C45BB5
Accurately ripped (confidence 3) [D84B62A6]
Copy OK
All tracks accurately ripped
No errors occurred
End of status report
REM GENRE Rock
REM DATE 2009
REM DISCID 9709550B
REM COMMENT "ExactAudioCopy v0.99pb5"
PERFORMER "Kane"
TITLE "No Surrender"
FILE "01. No Surrender.wav" WAVE
TRACK 01 AUDIO
TITLE "No Surrender"
PERFORMER "Kane"
INDEX 01 00:00:00
FILE "02. A Little Something.wav" WAVE
TRACK 02 AUDIO
TITLE "A Little Something"
PERFORMER "Kane"
INDEX 01 00:00:00
FILE "03. Point Blank.wav" WAVE
TRACK 03 AUDIO
TITLE "Point Blank"
PERFORMER "Kane"
INDEX 01 00:00:00
FILE "04. Devil In me.wav" WAVE
TRACK 04 AUDIO
TITLE "Devil In me"
PERFORMER "Kane"
INDEX 01 00:00:00
FILE "05. In Over My Head.wav" WAVE
TRACK 05 AUDIO
TITLE "In Over My Head"
PERFORMER "Kane"
INDEX 01 00:00:00
FILE "06. Heartbeat.wav" WAVE
TRACK 06 AUDIO
TITLE "Heartbeat"
PERFORMER "Kane"
INDEX 01 00:00:00
FILE "07. Dogma 2.0.wav" WAVE
TRACK 07 AUDIO
TITLE "Dogma 2.0"
PERFORMER "Kane"
INDEX 01 00:00:00
FILE "08. Scream.wav" WAVE
TRACK 08 AUDIO
TITLE "Scream"
PERFORMER "Kane"
INDEX 01 00:00:00
FILE "09. Love Over Healing.wav" WAVE
TRACK 09 AUDIO
TITLE "Love Over Healing"
PERFORMER "Kane"
INDEX 01 00:00:00
FILE "10. Here Comes The End.wav" WAVE
TRACK 10 AUDIO
TITLE "Here Comes The End"
PERFORMER "Kane"
INDEX 01 00:00:00
FILE "11. High Places.wav" WAVE
TRACK 11 AUDIO
TITLE "High Places"
PERFORMER "Kane"
INDEX 01 00:00:00
1. No Surrender - 3:05.36
2. A Little Something - 3:23.47
3. Point Blank - 3:03.72
4. Devil In Me - 3:45.64
5. In Over My Head - 3:12.51
6. Heartbeat - 2:57.32
7. Dogma 2.0 - 3:34.23
8. Scream - 2:58.04
9. Love Over Healing - 4:15.18
10. Here Comes The End - 4:35.26
11. High Places - 4:57.55
Приятного прослушивания...
Правила, инструкции, FAQ!!!
Торрент  Добавлен [26 мар 2019, 19:25] Скачать торрент Магнет ссылка
Скачать торрент
[ Размер 22.25 КБ / Просмотров 9 ]

Статус
Проверен 
 
Размер  1.55 ГБ
Приватный: Нет (DHT включён)
.torrent скачан  2
 


     Отправить личное сообщение
   
Страница 1 из 1
Показать сообщения за:  Поле сортировки  
Начать новую тему Ответить на тему


Сейчас этот форум просматривают: нет зарегистрированных пользователей и гости: 0


Вы не можете начинать темы
Вы не можете отвечать на сообщения
Вы не можете редактировать свои сообщения
Вы не можете удалять свои сообщения
Вы не можете добавлять вложения

Перейти:  
cron