Начать новую тему Ответить на тему
Статистика раздачи
Размер: 638.87 МБ | Добавлен: 26 мар 2019, 19:16 | Скачали: 0
Сидеров: 0  [0 байт/сек]    Личеров: 0  [0 байт/сек]
Пред. тема | След. тема 

Автор
Сообщение

СообщениеДобавлено: 26 мар 2019, 19:16 

Ответить с цитатой 

Kane - Singles Only (2CD)
Жанр: Pop Rock, Soft Rock
Страна-производитель диска: Germany
Год издания диска: 2011
Издатель (лейбл): Universal Music
Номер по каталогу: 276115-6
Страна: USA
Аудио кодек: FLAC (*.flac)
Тип рипа: image+.cue
Битрейт аудио: lossless
Продолжительность: 01:28:26
Источник (релизер): WarMachine
Наличие сканов в содержимом раздачи: да
Треклист:
01. Where Do I Go Now 04:15
02. Damn Those Eyes 04:12
03. I Will Keep My Head Down 04:29
04. Can You Handle Me 03:22
05. So Glad You Made It 04:19
06. Let It Be 05:29
07. Rain Down On Me 04:04
08. Hold On To The World 03:35
09. My Best Wasn't Good Enough 03:19
10. Before You Let Me Go 04:13
11. Dreamer 02:43
12. Something To Say 03:28
Exact Audio Copy V0.99 prebeta 5 from 4. May 2009
EAC extraction logfile from 28. October 2011, 20:40
Kane / Singles Only (CD-1)
Used drive : OPTIARC DVD-ROM DDU1681S Adapter: 1 ID: 1
Read mode : Secure
Utilize accurate stream : Yes
Defeat audio cache : Yes
Make use of C2 pointers : No
Read offset correction : 6
Overread into Lead-In and Lead-Out : No
Fill up missing offset samples with silence : Yes
Delete leading and trailing silent blocks : No
Null samples used in CRC calculations : No
Used interface : Native Win32 interface for Win NT & 2000
Used output format : Internal WAV Routines
Sample format : 44.100 Hz; 16 Bit; Stereo
TOC of the extracted CD
Track | Start | Length | Start sector | End sector
---------------------------------------------------------
1 | 0:00.00 | 4:15.73 | 0 | 19197
2 | 4:15.73 | 4:12.40 | 19198 | 38137
3 | 8:28.38 | 4:29.66 | 38138 | 58378
4 | 12:58.29 | 3:22.24 | 58379 | 73552
5 | 16:20.53 | 4:19.59 | 73553 | 93036
6 | 20:40.37 | 5:29.20 | 93037 | 117731
7 | 26:09.57 | 4:04.69 | 117732 | 136100
8 | 30:14.51 | 3:35.47 | 136101 | 152272
9 | 33:50.23 | 3:19.38 | 152273 | 167235
10 | 37:09.61 | 4:13.18 | 167236 | 186228
11 | 41:23.04 | 2:43.45 | 186229 | 198498
12 | 44:06.49 | 3:28.06 | 198499 | 214104
Range status and errors
Selected range
Filename J:\Kane\Singles Only (2011)\CD 1\Kane - Singles Only (CD-1).wav
Peak level 98.5 %
Range quality 99.9 %
Test CRC 2B230E05
Copy CRC 2B230E05
Copy OK
No errors occurred
AccurateRip summary
Track 1 not present in database
Track 2 not present in database
Track 3 not present in database
Track 4 not present in database
Track 5 not present in database
Track 6 not present in database
Track 7 not present in database
Track 8 not present in database
Track 9 not present in database
Track 10 not present in database
Track 11 not present in database
Track 12 not present in database
None of the tracks are present in the AccurateRip database
End of status report
REM GENRE Pop
REM DATE 2011
REM DISCID 950B260C
REM COMMENT "ExactAudioCopy v0.99pb5"
PERFORMER "Kane"
TITLE "Singles Only (CD-1)"
FILE "Kane - Singles Only (CD-1).flac" WAVE
TRACK 01 AUDIO
TITLE "Where Do I Go Now"
PERFORMER "Kane"
INDEX 01 00:00:00
TRACK 02 AUDIO
TITLE "Damn Those Eyes"
PERFORMER "Kane"
INDEX 00 04:14:10
INDEX 01 04:15:73
TRACK 03 AUDIO
TITLE "I Will Keep My Head Down"
PERFORMER "Kane"
INDEX 00 08:26:54
INDEX 01 08:28:38
TRACK 04 AUDIO
TITLE "Can You Handle Me"
PERFORMER "Kane"
INDEX 00 12:57:23
INDEX 01 12:58:29
TRACK 05 AUDIO
TITLE "So Glad You Made It"
PERFORMER "Kane"
INDEX 00 16:19:15
INDEX 01 16:20:53
TRACK 06 AUDIO
TITLE "Let It Be"
PERFORMER "Kane"
INDEX 00 20:38:61
INDEX 01 20:40:37
TRACK 07 AUDIO
TITLE "Rain Down On Me"
PERFORMER "Kane"
INDEX 00 26:08:22
INDEX 01 26:09:57
TRACK 08 AUDIO
TITLE "Hold On To The World"
PERFORMER "Kane"
INDEX 00 30:13:05
INDEX 01 30:14:51
TRACK 09 AUDIO
TITLE "My Best Wasn't Good Enough"
PERFORMER "Kane"
INDEX 00 33:48:67
INDEX 01 33:50:23
TRACK 10 AUDIO
TITLE "Before You Let Me Go"
PERFORMER "Kane"
INDEX 00 37:08:51
INDEX 01 37:09:61
TRACK 11 AUDIO
TITLE "Dreamer"
PERFORMER "Kane"
INDEX 00 41:22:20
INDEX 01 41:23:04
TRACK 12 AUDIO
TITLE "Something To Say"
PERFORMER "Kane"
INDEX 00 44:05:40
INDEX 01 44:06:49
-----------------------
DON'T MODIFY THIS FILE
-----------------------
PERFORMER: auCDtect Task Manager, ver. 1.5.1RC4 build 1.5.1.5
Copyright (c) 2008-2010 y-soft. All rights reserved
http://y-soft.org
ANALYZER: auCDtect: CD records authenticity detector, version 0.8.2
Copyright (c) 2004 Oleg Berngardt. All rights reserved.
Copyright (c) 2004 Alexander Djourik. All rights reserved.
FILE: Kane - Singles Only (CD-1).flac
Size: 361668548 Hash: 998094398B7A0BB793CD68224DAC59AA Accuracy: -m0
Conclusion: CDDA 100%
Signature: 89EB82EE633C52B40857F4E88C18D65193192340
01. Fearless 03:40
02. All I Can Do 03:04
03. Believe It 03:04
04. Catwalk Criminal 02:54
05. Shot Of A Gun 03:09
06. Wanna Make It Happen 03:57
07. It's London Calling 03:42
08. No Surrender 03:42
09. Love Over Healing 04:16
10. In Over My Head 03:14
11. Scream 02:55
12. High Places 03:44
Exact Audio Copy V0.99 prebeta 5 from 4. May 2009
EAC extraction logfile from 28. October 2011, 22:04
Kane / Singles Only (CD-2)
Used drive : OPTIARC DVD-ROM DDU1681S Adapter: 1 ID: 1
Read mode : Secure
Utilize accurate stream : Yes
Defeat audio cache : Yes
Make use of C2 pointers : No
Read offset correction : 6
Overread into Lead-In and Lead-Out : No
Fill up missing offset samples with silence : Yes
Delete leading and trailing silent blocks : No
Null samples used in CRC calculations : No
Used interface : Native Win32 interface for Win NT & 2000
Used output format : Internal WAV Routines
Sample format : 44.100 Hz; 16 Bit; Stereo
TOC of the extracted CD
Track | Start | Length | Start sector | End sector
---------------------------------------------------------
1 | 0:00.00 | 3:40.60 | 0 | 16559
2 | 3:40.60 | 3:04.31 | 16560 | 30390
3 | 6:45.16 | 3:04.22 | 30391 | 44212
4 | 9:49.38 | 2:54.15 | 44213 | 57277
5 | 12:43.53 | 3:09.03 | 57278 | 71455
6 | 15:52.56 | 3:57.57 | 71456 | 89287
7 | 19:50.38 | 3:42.42 | 89288 | 105979
8 | 23:33.05 | 3:42.42 | 105980 | 119971
9 | 26:39.47 | 4:16.21 | 119972 | 139192
10 | 30:55.68 | 3:14.13 | 139193 | 153755
11 | 34:10.06 | 2:55.20 | 153756 | 166900
12 | 37:05.26 | 3:44.25 | 166901 | 183725
Range status and errors
Selected range
Filename J:\Kane\Singles Only (2011)\CD 2\Kane - Singles Only (CD-2).wav
Peak level 100.0 %
Range quality 100.0 %
Test CRC B10F1058
Copy CRC B10F1058
Copy OK
No errors occurred
AccurateRip summary
Track 1 not present in database
Track 2 not present in database
Track 3 not present in database
Track 4 not present in database
Track 5 not present in database
Track 6 not present in database
Track 7 not present in database
Track 8 not present in database
Track 9 not present in database
Track 10 not present in database
Track 11 not present in database
Track 12 not present in database
None of the tracks are present in the AccurateRip database
End of status report
REM GENRE Pop
REM DATE 2011
REM DISCID 9109910C
REM COMMENT "ExactAudioCopy v0.99pb5"
PERFORMER "Kane"
TITLE "Singles Only (CD-2)"
FILE "Kane - Singles Only (CD-2).flac" WAVE
TRACK 01 AUDIO
TITLE "Fearless"
PERFORMER "Kane"
INDEX 01 00:00:00
TRACK 02 AUDIO
TITLE "All I Can Do"
PERFORMER "Kane"
INDEX 00 01:52:70
INDEX 01 03:40:60
TRACK 03 AUDIO
TITLE "Believe It"
PERFORMER "Kane"
INDEX 00 06:43:14
INDEX 01 06:45:16
TRACK 04 AUDIO
TITLE "Catwalk Criminal"
PERFORMER "Kane"
INDEX 00 09:47:53
INDEX 01 09:49:38
TRACK 05 AUDIO
TITLE "Shot Of A Gun"
PERFORMER "Kane"
INDEX 00 12:42:36
INDEX 01 12:43:53
TRACK 06 AUDIO
TITLE "Wanna Make It Happen"
PERFORMER "Kane"
INDEX 00 15:51:09
INDEX 01 15:52:56
TRACK 07 AUDIO
TITLE "It's London Calling"
PERFORMER "Kane"
INDEX 01 19:50:38
TRACK 08 AUDIO
TITLE "No Surrender"
PERFORMER "Kane"
INDEX 01 23:33:05
TRACK 09 AUDIO
TITLE "Love Over Healing"
PERFORMER "Kane"
INDEX 01 26:39:47
TRACK 10 AUDIO
TITLE "In Over My Head"
PERFORMER "Kane"
INDEX 00 30:55:53
INDEX 01 30:55:68
TRACK 11 AUDIO
TITLE "Scream"
PERFORMER "Kane"
INDEX 01 34:10:06
TRACK 12 AUDIO
TITLE "High Places"
PERFORMER "Kane"
INDEX 00 37:03:46
INDEX 01 37:05:26
-----------------------
DON'T MODIFY THIS FILE
-----------------------
PERFORMER: auCDtect Task Manager, ver. 1.5.1RC4 build 1.5.1.5
Copyright (c) 2008-2010 y-soft. All rights reserved
http://y-soft.org
ANALYZER: auCDtect: CD records authenticity detector, version 0.8.2
Copyright (c) 2004 Oleg Berngardt. All rights reserved.
Copyright (c) 2004 Alexander Djourik. All rights reserved.
FILE: Kane - Singles Only (CD-2).flac
Size: 307365185 Hash: AC51F3A6FC6D2376B66ACEC094756FB7 Accuracy: -m0
Conclusion: CDDA 100%
Signature: CDA565F202D7193429161542C3B83983FFA42472
Доп. информация
The group started in The Hague in 1999, when Dinand and Dennis met each other in a beach cafe where they were both working at that time. Both had a passion for music and it did not take long before they were discovered in a small cafe where they performed for a very small audience. The breakthrough came in the summer of 1999 with the song "Where Do I Go Now". The CD As Long as You Want This from 1999 was on the album hit list for 1.5 years and achieved double platinum sales. With the second album from 2001, called So Glad You Made It the group scored several big hits. One of the biggest hit singles was "Let It Be". In the following years Kane received some big awards, including TMF awards , MTV Europe music awards and an Edison. Kane performed at big festivals like Parkpop and Pinkpop. Dinands wife was Guusje Nederhorst. She died from breast cancer on 29 January 2004. The couple's son is Dean Maddy Woesthoff. Dinand devoted the song "Dreamer" to his beloved wife. This single immediately reached the number 1 chart position and became the best selling single of 2004. Kane tried to make a career abroad, but with only little success in Belgium and a #38 UK chart position for "Rain Down on Me", it didn't go too well. The fact that there's an American southern rock band called Kane and that the name of English piano rock band Keane resembles Kane's didn't do them much good either. The third album of the band, Fearless, came out of nowhere and hit #1 on the Dutch charts. The first 2 singles, "Something to Say" and "Fearless" came in at #1 too. On August 13, 2005 the band did an open-air performance on the beach of Almere. It was visited by over 30.000 people.
Правила, инструкции, FAQ!!!
Торрент  Добавлен [26 мар 2019, 19:16] Скачать торрент Магнет ссылка
Скачать торрент
[ Размер 14.48 КБ / Просмотров 0 ]

Статус
Проверен 
 
Размер  638.87 МБ
Приватный: Нет (DHT включён)
.torrent скачан  0
 


     Отправить личное сообщение
   
Страница 1 из 1
Показать сообщения за:  Поле сортировки  
Начать новую тему Ответить на тему


Сейчас этот форум просматривают: нет зарегистрированных пользователей и гости: 0


Вы не можете начинать темы
Вы не можете отвечать на сообщения
Вы не можете редактировать свои сообщения
Вы не можете удалять свои сообщения
Вы не можете добавлять вложения

Перейти:  
cron