Начать новую тему Ответить на тему
Статистика раздачи
Размер: 333.41 МБ | Добавлен: 26 мар 2019, 18:42 | Скачали: 0
Сидеров: 0  [0 байт/сек]    Личеров: 0  [0 байт/сек]
Пред. тема | След. тема 

Автор
Сообщение

СообщениеДобавлено: 26 мар 2019, 18:42 

Ответить с цитатой 

Jennifer Daniels - Summer Filled Sky
Жанр: Pop Rock, Soft Rock
Носитель: CD
Год издания: 2004
Издатель (лейбл): TNtrees Music
Номер по каталогу: #4
Аудиокодек: FLAC (*.flac)
Тип рипа: tracks+.cue
Битрейт аудио: lossless
Продолжительность: 49:35
Источник (релизер): What.cd (YTShaftoe)
Наличие сканов в содержимом раздачи: нет
Треклист:
01. Day To Live (3:57)
02. Stay (4:07)
03. Oatmeal (3:43)
04. Welcome To Your Life (3:12)
05. Tattoo (4:31)
06. In My Coat (3:59)
07. Conversations With Magdalene (4:04)
08. Water Spider (4:43)
09. Mary's Song (3:51)
10. Julie (4:41)
11. Spiderman (4:53)
12. I Don't Have Enough (3:55)
 
Код:
X Lossless Decoder version 20141129 (148.1)
XLD extraction logfile from 2014-12-29 00:20:41 -0500
Jennifer Daniels / Summer Filled Sky
Used drive : TSSTcorp CDDVDW SE-218GN (revision TS00)
Media type : Pressed CD
Ripper mode             : XLD Secure Ripper
Disable audio cache     : OK for the drive with a cache less than 1375KiB
Make use of C2 pointers : NO
Read offset correction  : 667
Max retry count         : 20
Gap status              : Analyzed, Appended (except HTOA)
TOC of the extracted CD
     Track |   Start  |  Length  | Start sector | End sector
    ---------------------------------------------------------
        1  | 00:00:00 | 03:57:00 |         0    |    17774
        2  | 03:57:00 | 04:06:71 |     17775    |    36295
        3  | 08:03:71 | 03:42:66 |     36296    |    53011
        4  | 11:46:62 | 03:11:40 |     53012    |    67376
        5  | 14:58:27 | 04:30:47 |     67377    |    87673
        6  | 19:28:74 | 03:58:46 |     87674    |   105569
        7  | 23:27:45 | 04:03:72 |    105570    |   123866
        8  | 27:31:42 | 04:43:04 |    123867    |   145095
        9  | 32:14:46 | 03:51:00 |    145096    |   162420
       10  | 36:05:46 | 04:41:27 |    162421    |   183522
       11  | 40:46:73 | 04:53:07 |    183523    |   205504
       12  | 45:40:05 | 03:54:63 |    205505    |   223117
List of alternate offset correction values
        #  | Absolute | Relative | Confidence
    ------------------------------------------
        1  |   -628   |  -1295   |      2
AccurateRip Summary (DiscID: 001588a2-00ca677b-a30b9e0c)
    Track 01 : OK (v1, confidence 2/2, with different offset)
    Track 02 : OK (v1, confidence 2/2, with different offset)
    Track 03 : OK (v1, confidence 2/2, with different offset)
    Track 04 : OK (v1, confidence 2/2, with different offset)
    Track 05 : OK (v1, confidence 2/2, with different offset)
    Track 06 : OK (v1, confidence 2/2, with different offset)
    Track 07 : OK (v1, confidence 2/2, with different offset)
    Track 08 : OK (v1, confidence 2/2, with different offset)
    Track 09 : OK (v1, confidence 2/2, with different offset)
    Track 10 : OK (v1, confidence 2/2, with different offset)
    Track 11 : OK (v1, confidence 2/2, with different offset)
    Track 12 : OK (v1, confidence 2/2, with different offset)
        ->All tracks accurately ripped.
All Tracks
    Album gain               : -9.69 dB
    Peak                     : 0.998871
    Statistics
        Read error                           : 0
        Jitter error (maybe fixed)           : 0
        Retry sector count                   : 0
        Damaged sector count                 : 0
Track 01
    Filename : /Users/YTShaftoe/Desktop/what.cd rips/Music/Jennifer Daniels - Summer Filled Sky (2004) [FLAC]/01 Day to Live.flac
    Pre-gap length : 00:02:00
    Track gain               : -10.99 dB
    Peak                     : 0.990875
    CRC32 hash (test run)    : A655E43A
    CRC32 hash               : A655E43A
    CRC32 hash (skip zero)   : 20771A28
    AccurateRip v1 signature : F64F5D80 (486B5F48 w/correction)
    AccurateRip v2 signature : A22E9C58
        ->Accurately ripped with different offset (v1, confidence 2/2, offset -1295)
    Statistics
        Read error                           : 0
        Jitter error (maybe fixed)           : 0
        Retry sector count                   : 0
        Damaged sector count                 : 0
Track 02
    Filename : /Users/YTShaftoe/Desktop/what.cd rips/Music/Jennifer Daniels - Summer Filled Sky (2004) [FLAC]/02 Stay.flac
    Track gain               : -9.59 dB
    Peak                     : 0.990875
    CRC32 hash (test run)    : 94508290
    CRC32 hash               : 94508290
    CRC32 hash (skip zero)   : 403FB6C3
    AccurateRip v1 signature : 23E1B0E9 (BB7D062B w/correction)
    AccurateRip v2 signature : A85E8830
        ->Accurately ripped with different offset (v1, confidence 2/2, offset -1295)
    Statistics
        Read error                           : 0
        Jitter error (maybe fixed)           : 0
        Retry sector count                   : 0
        Damaged sector count                 : 0
Track 03
    Filename : /Users/YTShaftoe/Desktop/what.cd rips/Music/Jennifer Daniels - Summer Filled Sky (2004) [FLAC]/03 Oatmeal.flac
    Track gain               : -10.40 dB
    Peak                     : 0.998871
    CRC32 hash (test run)    : 2A7017E7
    CRC32 hash               : 2A7017E7
    CRC32 hash (skip zero)   : 93AF6570
    AccurateRip v1 signature : DD0EB598 (8ADB7629 w/correction)
    AccurateRip v2 signature : 0208E19D
        ->Accurately ripped with different offset (v1, confidence 2/2, offset -1295)
    Statistics
        Read error                           : 0
        Jitter error (maybe fixed)           : 0
        Retry sector count                   : 0
        Damaged sector count                 : 0
Track 04
    Filename : /Users/YTShaftoe/Desktop/what.cd rips/Music/Jennifer Daniels - Summer Filled Sky (2004) [FLAC]/04 Welcome to Your Life.flac
    Track gain               : -10.14 dB
    Peak                     : 0.990875
    CRC32 hash (test run)    : 7FA329B9
    CRC32 hash               : 7FA329B9
    CRC32 hash (skip zero)   : D1A6446C
    AccurateRip v1 signature : 0EDB1683 (83CC3CB7 w/correction)
    AccurateRip v2 signature : 98145BF9
        ->Accurately ripped with different offset (v1, confidence 2/2, offset -1295)
    Statistics
        Read error                           : 0
        Jitter error (maybe fixed)           : 0
        Retry sector count                   : 0
        Damaged sector count                 : 0
Track 05
    Filename : /Users/YTShaftoe/Desktop/what.cd rips/Music/Jennifer Daniels - Summer Filled Sky (2004) [FLAC]/05 Tattoo.flac
    Track gain               : -6.67 dB
    Peak                     : 0.998871
    CRC32 hash (test run)    : 56551980
    CRC32 hash               : 56551980
    CRC32 hash (skip zero)   : 4D521179
    AccurateRip v1 signature : 474A5269 (A564B8D5 w/correction)
    AccurateRip v2 signature : EA7808B0
        ->Accurately ripped with different offset (v1, confidence 2/2, offset -1295)
    Statistics
        Read error                           : 0
        Jitter error (maybe fixed)           : 0
        Retry sector count                   : 0
        Damaged sector count                 : 0
Track 06
    Filename : /Users/YTShaftoe/Desktop/what.cd rips/Music/Jennifer Daniels - Summer Filled Sky (2004) [FLAC]/06 In My Coat.flac
    Track gain               : -10.78 dB
    Peak                     : 0.990875
    CRC32 hash (test run)    : BA9C39B9
    CRC32 hash               : BA9C39B9
    CRC32 hash (skip zero)   : EC248F0A
    AccurateRip v1 signature : D91D9193 (D7198108 w/correction)
    AccurateRip v2 signature : AF093F65
        ->Accurately ripped with different offset (v1, confidence 2/2, offset -1295)
    Statistics
        Read error                           : 0
        Jitter error (maybe fixed)           : 0
        Retry sector count                   : 0
        Damaged sector count                 : 0
Track 07
    Filename : /Users/YTShaftoe/Desktop/what.cd rips/Music/Jennifer Daniels - Summer Filled Sky (2004) [FLAC]/07 Conversations with Magdalene.flac
    Track gain               : -8.22 dB
    Peak                     : 0.990875
    CRC32 hash (test run)    : 63857858
    CRC32 hash               : 63857858
    CRC32 hash (skip zero)   : 225E14E3
    AccurateRip v1 signature : 9F0D57E7 (93D644DD w/correction)
    AccurateRip v2 signature : E64C123C
        ->Accurately ripped with different offset (v1, confidence 2/2, offset -1295)
    Statistics
        Read error                           : 0
        Jitter error (maybe fixed)           : 0
        Retry sector count                   : 0
        Damaged sector count                 : 0
Track 08
    Filename : /Users/YTShaftoe/Desktop/what.cd rips/Music/Jennifer Daniels - Summer Filled Sky (2004) [FLAC]/08 Water Spider.flac
    Track gain               : -7.58 dB
    Peak                     : 0.990875
    CRC32 hash (test run)    : BDAD88FB
    CRC32 hash               : BDAD88FB
    CRC32 hash (skip zero)   : 94E20146
    AccurateRip v1 signature : 15B43EBB (A4DF5A3B w/correction)
    AccurateRip v2 signature : DB318B0D
        ->Accurately ripped with different offset (v1, confidence 2/2, offset -1295)
    Statistics
        Read error                           : 0
        Jitter error (maybe fixed)           : 0
        Retry sector count                   : 0
        Damaged sector count                 : 0
Track 09
    Filename : /Users/YTShaftoe/Desktop/what.cd rips/Music/Jennifer Daniels - Summer Filled Sky (2004) [FLAC]/09 Mary's Song.flac
    Track gain               : -8.54 dB
    Peak                     : 0.998871
    CRC32 hash (test run)    : B57B6A48
    CRC32 hash               : B57B6A48
    CRC32 hash (skip zero)   : EB2A71B1
    AccurateRip v1 signature : BB647100 (DE637DE1 w/correction)
    AccurateRip v2 signature : AF6B4ED1
        ->Accurately ripped with different offset (v1, confidence 2/2, offset -1295)
    Statistics
        Read error                           : 0
        Jitter error (maybe fixed)           : 0
        Retry sector count                   : 0
        Damaged sector count                 : 0
Track 10
    Filename : /Users/YTShaftoe/Desktop/what.cd rips/Music/Jennifer Daniels - Summer Filled Sky (2004) [FLAC]/10 Julie.flac
    Track gain               : -7.60 dB
    Peak                     : 0.990875
    CRC32 hash (test run)    : 8A551385
    CRC32 hash               : 8A551385
    CRC32 hash (skip zero)   : F9AD6DA1
    AccurateRip v1 signature : 4764B6B9 (403FEB8A w/correction)
    AccurateRip v2 signature : 748F0EC5
        ->Accurately ripped with different offset (v1, confidence 2/2, offset -1295)
    Statistics
        Read error                           : 0
        Jitter error (maybe fixed)           : 0
        Retry sector count                   : 0
        Damaged sector count                 : 0
Track 11
    Filename : /Users/YTShaftoe/Desktop/what.cd rips/Music/Jennifer Daniels - Summer Filled Sky (2004) [FLAC]/11 Spiderman.flac
    Track gain               : -9.05 dB
    Peak                     : 0.990845
    CRC32 hash (test run)    : 6D6C3134
    CRC32 hash               : 6D6C3134
    CRC32 hash (skip zero)   : 366E6881
    AccurateRip v1 signature : 6DA4D7F4 (965FB3EE w/correction)
    AccurateRip v2 signature : CEA64AD6
        ->Accurately ripped with different offset (v1, confidence 2/2, offset -1295)
    Statistics
        Read error                           : 0
        Jitter error (maybe fixed)           : 0
        Retry sector count                   : 0
        Damaged sector count                 : 0
Track 12
    Filename : /Users/YTShaftoe/Desktop/what.cd rips/Music/Jennifer Daniels - Summer Filled Sky (2004) [FLAC]/12 I Don't Have Enough.flac
    Track gain               : -10.08 dB
    Peak                     : 0.990875
    CRC32 hash (test run)    : 02120474
    CRC32 hash               : 02120474
    CRC32 hash (skip zero)   : 37F40AAF
    AccurateRip v1 signature : CCB7686E (06D664D9 w/correction)
    AccurateRip v2 signature : 073BD910
        ->Accurately ripped with different offset (v1, confidence 2/2, offset -1295)
    Statistics
        Read error                           : 0
        Jitter error (maybe fixed)           : 0
        Retry sector count                   : 0
        Damaged sector count                 : 0
No errors occurred
End of status report
-----BEGIN XLD SIGNATURE-----
dTtBApsMnrugpiBLf_Ay7FhylvPzGI7izuh9HYTi8KHOhI86xEmQh9Z8lZK252U2cfnj19gBv7LIPe1OME40arq6d7dHriBaj.tIFq0
-----END XLD SIGNATURE-----
Код:
TITLE "Summer Filled Sky"
PERFORMER "Jennifer Daniels"
REM GENRE "Alternative"
REM DATE "2004"
REM DISCNUMBER 1
REM TOTALDISCS 1
REM DISCID A30B9E0C
REM REPLAYGAIN_ALBUM_GAIN -9.69 dB
REM REPLAYGAIN_ALBUM_PEAK 0.998871
FILE "01 Day To Live.flac" WAVE
  TRACK 01 AUDIO
    TITLE "Day To Live"
    REM REPLAYGAIN_TRACK_GAIN -10.99 dB
    REM REPLAYGAIN_TRACK_PEAK 0.990875
    INDEX 01 00:00:00
FILE "02 Stay.flac" WAVE
  TRACK 02 AUDIO
    TITLE "Stay"
    REM REPLAYGAIN_TRACK_GAIN -9.59 dB
    REM REPLAYGAIN_TRACK_PEAK 0.990875
    INDEX 01 00:00:00
FILE "03 Oatmeal.flac" WAVE
  TRACK 03 AUDIO
    TITLE "Oatmeal"
    REM REPLAYGAIN_TRACK_GAIN -10.40 dB
    REM REPLAYGAIN_TRACK_PEAK 0.998871
    INDEX 01 00:00:00
FILE "04 Welcome To Your Life.flac" WAVE
  TRACK 04 AUDIO
    TITLE "Welcome To Your Life"
    REM REPLAYGAIN_TRACK_GAIN -10.14 dB
    REM REPLAYGAIN_TRACK_PEAK 0.990875
    INDEX 01 00:00:00
FILE "05 Tattoo.flac" WAVE
  TRACK 05 AUDIO
    TITLE "Tattoo"
    REM REPLAYGAIN_TRACK_GAIN -6.67 dB
    REM REPLAYGAIN_TRACK_PEAK 0.998871
    INDEX 01 00:00:00
FILE "06 In My Coat.flac" WAVE
  TRACK 06 AUDIO
    TITLE "In My Coat"
    REM REPLAYGAIN_TRACK_GAIN -10.78 dB
    REM REPLAYGAIN_TRACK_PEAK 0.990875
    INDEX 01 00:00:00
FILE "07 Conversations With Magdalene.flac" WAVE
  TRACK 07 AUDIO
    TITLE "Conversations With Magdalene"
    REM REPLAYGAIN_TRACK_GAIN -8.22 dB
    REM REPLAYGAIN_TRACK_PEAK 0.990875
    INDEX 01 00:00:00
FILE "08 Water Spider.flac" WAVE
  TRACK 08 AUDIO
    TITLE "Water Spider"
    REM REPLAYGAIN_TRACK_GAIN -7.58 dB
    REM REPLAYGAIN_TRACK_PEAK 0.990875
    INDEX 01 00:00:00
FILE "09 Mary's Song.flac" WAVE
  TRACK 09 AUDIO
    TITLE "Mary's Song"
    REM REPLAYGAIN_TRACK_GAIN -8.54 dB
    REM REPLAYGAIN_TRACK_PEAK 0.998871
    INDEX 01 00:00:00
FILE "10 Julie.flac" WAVE
  TRACK 10 AUDIO
    TITLE "Julie"
    REM REPLAYGAIN_TRACK_GAIN -7.60 dB
    REM REPLAYGAIN_TRACK_PEAK 0.990875
    INDEX 01 00:00:00
FILE "11 Spiderman.flac" WAVE
  TRACK 11 AUDIO
    TITLE "Spiderman"
    REM REPLAYGAIN_TRACK_GAIN -9.05 dB
    REM REPLAYGAIN_TRACK_PEAK 0.990845
    INDEX 01 00:00:00
FILE "12 I Don't Have Enough.flac" WAVE
  TRACK 12 AUDIO
    TITLE "I Don't Have Enough"
    REM REPLAYGAIN_TRACK_GAIN -10.08 dB
    REM REPLAYGAIN_TRACK_PEAK 0.990875
    INDEX 01 00:00:00
Код:
foobar2000 1.1.6 / Dynamic Range Meter 1.1.1
log date: 2015-01-06 10:48:40
--------------------------------------------------------------------------------
Analyzed: Jennifer Daniels / Summer Filled Sky
--------------------------------------------------------------------------------
DR         Peak         RMS     Duration Track
--------------------------------------------------------------------------------
DR6       -0.08 dB    -7.15 dB      3:57 01-Day To Live
DR7       -0.08 dB    -8.80 dB      4:07 02-Stay
DR6       -0.01 dB    -9.22 dB      3:43 03-Oatmeal
DR7       -0.08 dB    -8.80 dB      3:12 04-Welcome To Your Life
DR9       -0.01 dB   -11.98 dB      4:31 05-Tattoo
DR6       -0.08 dB    -8.50 dB      3:59 06-In My Coat
DR9       -0.08 dB   -11.59 dB      4:04 07-Conversations With Magdalene
DR8       -0.08 dB    -9.99 dB      4:43 08-Water Spider
DR7       -0.01 dB    -8.59 dB      3:51 09-Mary's Song
DR8       -0.08 dB   -10.34 dB      4:41 10-Julie
DR8       -0.08 dB   -10.32 dB      4:53 11-Spiderman
DR6       -0.08 dB    -8.25 dB      3:55 12-I Don't Have Enough
--------------------------------------------------------------------------------
Number of tracks:  12
Official DR value: DR7
Samplerate:        44100 Hz
Channels:          2
Bits per sample:   16
Bitrate:           978 kbps
Codec:             FLAC
================================================================================
Award-winning singer-songwriter Jennifer Daniels returns with her highly anticipated third release, Summer Filled Sky. Summer Filled Sky has already sparked the interest of several major and indie labels, and promises to delight and inspire an even wider audience than her sophomore album Dive & Fly.
Dive & Fly thrust Daniels onto the national scene when it was named one of the Top 12 Independent Releases in 2002 by Performing Songwriter and added to the playlists of nearly 200 radio stations across the country. FM Odyssey not only awarded Dive & Fly the Album of the Year, but the nationally syndicated radio show also chose Jennifer as the Best New Female Artist at their Alternative to the Grammy's music awards ceremony that same year.
While touring regularly her powerful voice, angelic melodies and spirited performances have won over the hearts of audiences and critics across the country. "It is a rare gift that someone can express such depth and power in lyrics, and it is even more rare that the lyrical gift is accompanied by such an amazing musical talent," wrote Geneses Publishing. PasteMusic.com describes Daniels' musical style as "a sound that wanders from alt-country to haunting folk rock, delivering her poetry with an urgency to match its message."
Summer Filled Sky was mixed and mastered by legendary engineer and producer Rodney Mills who has earned 37 gold and platinum albums for mixing, mastering, and producing artists including Sheryl Crow, Pearl Jam, Gregg Allman, and REM. Mr. Mills successfully captured just the right vibe for Daniels' distinct style and inspiring lyrics, and set her most impressive instrument -her voice- perfectly in the tracks.
"The songs on Summer Filled Sky were put together as a collection because of the way they tap into that thing that stirs inside us when winter finally gives way," explains Daniels.
From joyful pop rock anthems like Day to Live and Welcome to Your Life to the melancholy beauty of ballads like Tattoo and Spiderman, Summer Filled Sky leaves no emotion untapped and no feeling unstirred.
Правила, инструкции, FAQ!!!
Торрент  Добавлен [26 мар 2019, 18:42] Скачать торрент Магнет ссылка
Скачать торрент
[ Размер 7.78 КБ / Просмотров 1 ]

Статус
Проверен 
 
Размер  333.41 МБ
Приватный: Нет (DHT включён)
.torrent скачан  0
 


     Отправить личное сообщение
   
Страница 1 из 1
Показать сообщения за:  Поле сортировки  
Начать новую тему Ответить на тему


Сейчас этот форум просматривают: нет зарегистрированных пользователей и гости: 0


Вы не можете начинать темы
Вы не можете отвечать на сообщения
Вы не можете редактировать свои сообщения
Вы не можете удалять свои сообщения
Вы не можете добавлять вложения

Перейти:  
cron