Начать новую тему Ответить на тему
Статистика раздачи
Размер: 381.03 МБ | Добавлен: 26 мар 2019, 20:39 | Скачали: 1
Сидеров: 0  [0 байт/сек]    Личеров: 0  [0 байт/сек]
Пред. тема | След. тема 

Автор
Сообщение

СообщениеДобавлено: 26 мар 2019, 20:39 

Ответить с цитатой 

Jann Arden - The Best Of Jann Arden (20th Century Masters - The Millennium Collection)
Жанр: Pop-Rock, Soft Rock
Год издания диска: 2010
Издатель (лейбл): Universal
Номер по каталогу: 0252739160
Страна: Canada
Аудио кодек: FLAC (*.flac)
Тип рипа: tracks+.cue
Битрейт аудио: lossless
Продолжительность: 00:58:10
Источник (релизер): Demonoid.me (Kitlope)
Наличие сканов в содержимом раздачи: нет
Треклист:
01. Could I Be Your Girl (4:50)
02. Insensitive (4:17)
03. Love Is the Only Soldier (3:53)
04. Living Under June (4:02)
05. Saved (4:37)
06. Good Mother (4:59)
07. I Would Die for You (4:37)
08. Sleepless (4:34)
09. Unloved (4:17)
10. Waiting for Someone (4:41)
11. I Just Don't Love You Anymore (3:54)
12. Hanging By a Thread (5:05)
13. How Good Things Are (4:26)
Код:
Exact Audio Copy V1.0 beta 1 from 15. November 2010
EAC extraction logfile from 3. February 2011, 9:12
Jann Arden / 20th Century Masters - The Millenium Collection: The Best of Jann Arden
Used drive  : PLEXTOR DVDR   PX-716A   Adapter: 1  ID: 0
Read mode               : Secure
Utilize accurate stream : Yes
Defeat audio cache      : Yes
Make use of C2 pointers : No
Read offset correction                      : 30
Overread into Lead-In and Lead-Out          : No
Fill up missing offset samples with silence : Yes
Delete leading and trailing silent blocks   : No
Null samples used in CRC calculations       : Yes
Used interface                              : Native Win32 interface for Win NT & 2000
Gap handling                                : Appended to previous track
Used output format              : User Defined Encoder
Selected bitrate                : 768 kBit/s
Quality                         : High
Add ID3 tag                     : No
Command line compressor         : C:\Program Files (x86)\Exact Audio Copy\FLAC\FLAC.EXE
Additional command line options : -6 -V -T "ARTIST=%a" -T "TITLE=%t" -T "ALBUM=%g" -T "DATE=%y" -T "TRACKNUMBER=%n" -T "GENRE=%m" -T "COMMENT=%e" %j--picture="%i"%j %s -o %d
TOC of the extracted CD
     Track |   Start  |  Length  | Start sector | End sector
    ---------------------------------------------------------
        1  |  0:00.00 |  4:50.12 |         0    |    21761
        2  |  4:50.12 |  4:16.51 |     21762    |    41012
        3  |  9:06.63 |  3:53.02 |     41013    |    58489
        4  | 12:59.65 |  4:01.40 |     58490    |    76604
        5  | 17:01.30 |  4:36.50 |     76605    |    97354
        6  | 21:38.05 |  4:58.50 |     97355    |   119754
        7  | 26:36.55 |  4:37.37 |    119755    |   140566
        8  | 31:14.17 |  4:34.00 |    140567    |   161116
        9  | 35:48.17 |  4:16.50 |    161117    |   180366
       10  | 40:04.67 |  4:40.53 |    180367    |   201419
       11  | 44:45.45 |  3:53.53 |    201420    |   218947
       12  | 48:39.23 |  5:05.00 |    218948    |   241822
       13  | 53:44.23 |  4:25.57 |    241823    |   261754
Track  1
     Filename C:\Users\Mike\Documents\EAC Rips\01. Could I Be Your Girl - Jann Arden.wav
     Pre-gap length  0:00:02.00
     Peak level 98.8 %
     Extraction speed 4.9 X
     Track quality 100.0 %
     Test CRC A94FEB0B
     Copy CRC A94FEB0B
     Track not present in AccurateRip database
     Copy OK
Track  2
     Filename C:\Users\Mike\Documents\EAC Rips\02. Insensitive - Jann Arden.wav
     Peak level 98.8 %
     Extraction speed 4.5 X
     Track quality 99.9 %
     Test CRC FA414F11
     Copy CRC FA414F11
     Track not present in AccurateRip database
     Copy OK
Track  3
     Filename C:\Users\Mike\Documents\EAC Rips\03. Love Is the Only Soldier - Jann Arden.wav
     Peak level 100.0 %
     Extraction speed 5.8 X
     Track quality 100.0 %
     Test CRC FEFAB871
     Copy CRC FEFAB871
     Track not present in AccurateRip database
     Copy OK
Track  4
     Filename C:\Users\Mike\Documents\EAC Rips\04. Living Under June - Jann Arden.wav
     Peak level 100.0 %
     Extraction speed 6.3 X
     Track quality 100.0 %
     Test CRC 7238859C
     Copy CRC 7238859C
     Track not present in AccurateRip database
     Copy OK
Track  5
     Filename C:\Users\Mike\Documents\EAC Rips\05. Saved - Jann Arden.wav
     Peak level 98.8 %
     Extraction speed 6.8 X
     Track quality 100.0 %
     Test CRC 707A5F8B
     Copy CRC 707A5F8B
     Track not present in AccurateRip database
     Copy OK
Track  6
     Filename C:\Users\Mike\Documents\EAC Rips\06. Good Mother - Jann Arden.wav
     Peak level 98.8 %
     Extraction speed 7.3 X
     Track quality 100.0 %
     Test CRC 606832D1
     Copy CRC 606832D1
     Track not present in AccurateRip database
     Copy OK
Track  7
     Filename C:\Users\Mike\Documents\EAC Rips\07. I Would Die for You - Jann Arden.wav
     Peak level 98.8 %
     Extraction speed 7.6 X
     Track quality 100.0 %
     Test CRC E27E1E35
     Copy CRC E27E1E35
     Track not present in AccurateRip database
     Copy OK
Track  8
     Filename C:\Users\Mike\Documents\EAC Rips\08. Sleepless - Jann Arden.wav
     Peak level 98.8 %
     Extraction speed 7.9 X
     Track quality 100.0 %
     Test CRC 647AA6C1
     Copy CRC 647AA6C1
     Track not present in AccurateRip database
     Copy OK
Track  9
     Filename C:\Users\Mike\Documents\EAC Rips\09. Unloved - Jann Arden.wav
     Peak level 98.8 %
     Extraction speed 6.8 X
     Track quality 99.9 %
     Test CRC F5E67201
     Copy CRC F5E67201
     Track not present in AccurateRip database
     Copy OK
Track 10
     Filename C:\Users\Mike\Documents\EAC Rips\10. Waiting for Someone - Jann Arden.wav
     Peak level 88.1 %
     Extraction speed 8.7 X
     Track quality 100.0 %
     Test CRC 9F945947
     Copy CRC 9F945947
     Track not present in AccurateRip database
     Copy OK
Track 11
     Filename C:\Users\Mike\Documents\EAC Rips\11. I Just Don't Love You Anymore - Jann Arden.wav
     Peak level 88.1 %
     Extraction speed 8.8 X
     Track quality 100.0 %
     Test CRC D0D196E6
     Copy CRC D0D196E6
     Track not present in AccurateRip database
     Copy OK
Track 12
     Filename C:\Users\Mike\Documents\EAC Rips\12. Hanging By a Thread - Jann Arden.wav
     Peak level 100.0 %
     Extraction speed 9.4 X
     Track quality 100.0 %
     Test CRC 68564C33
     Copy CRC 68564C33
     Track not present in AccurateRip database
     Copy OK
Track 13
     Filename C:\Users\Mike\Documents\EAC Rips\13. How Good Things Are - Jann Arden.wav
     Peak level 100.0 %
     Extraction speed 9.4 X
     Track quality 100.0 %
     Test CRC 10810516
     Copy CRC 10810516
     Track not present in AccurateRip database
     Copy OK
None of the tracks are present in the AccurateRip database
No errors occurred
End of status report
Код:
REM GENRE Pop
REM DATE 2010
REM DISCID AD0DA20D
REM COMMENT "ExactAudioCopy v1.0b1"
PERFORMER "Jann Arden"
TITLE "20th Century Masters - The Millenium Collection: The Best of Jann Arden"
FILE "01. Could I Be Your Girl - Jann Arden.wav" WAVE
  TRACK 01 AUDIO
    TITLE "Could I Be Your Girl"
    PERFORMER "Jann Arden"
    ISRC CAA149400155
    INDEX 01 00:00:00
FILE "02. Insensitive - Jann Arden.wav" WAVE
  TRACK 02 AUDIO
    TITLE "Insensitive"
    PERFORMER "Jann Arden"
    ISRC USAM19604248
    INDEX 01 00:00:00
FILE "03. Love Is the Only Soldier - Jann Arden.wav" WAVE
  TRACK 03 AUDIO
    TITLE "Love Is the Only Soldier"
    PERFORMER "Jann Arden"
    ISRC CAM190300031
    INDEX 01 00:00:00
FILE "04. Living Under June - Jann Arden.wav" WAVE
  TRACK 04 AUDIO
    TITLE "Living Under June"
    PERFORMER "Jann Arden"
    ISRC USAM19500567
    INDEX 01 00:00:00
FILE "05. Saved - Jann Arden.wav" WAVE
  TRACK 05 AUDIO
    TITLE "Saved"
    PERFORMER "Jann Arden"
    ISRC CAM199700306
    INDEX 01 00:00:00
FILE "06. Good Mother - Jann Arden.wav" WAVE
  TRACK 06 AUDIO
    TITLE "Good Mother"
    PERFORMER "Jann Arden"
    ISRC CAA149400163
    INDEX 01 00:00:00
FILE "07. I Would Die for You - Jann Arden.wav" WAVE
  TRACK 07 AUDIO
    TITLE "I Would Die for You"
    PERFORMER "Jann Arden"
    ISRC CAA149200053
    INDEX 01 00:00:00
FILE "08. Sleepless - Jann Arden.wav" WAVE
  TRACK 08 AUDIO
    TITLE "Sleepless"
    PERFORMER "Jann Arden"
    ISRC CAM190000003
    INDEX 01 00:00:00
FILE "09. Unloved - Jann Arden.wav" WAVE
  TRACK 09 AUDIO
    TITLE "Unloved"
    PERFORMER "Jann Arden"
    ISRC CAA149400162
    INDEX 01 00:00:00
FILE "10. Waiting for Someone - Jann Arden.wav" WAVE
  TRACK 10 AUDIO
    TITLE "Waiting for Someone"
    PERFORMER "Jann Arden"
    ISRC CAA149200054
    INDEX 01 00:00:00
FILE "11. I Just Don't Love You Anymore - Jann Arden.wav" WAVE
  TRACK 11 AUDIO
    TITLE "I Just Don't Love You Anymore"
    PERFORMER "Jann Arden"
    ISRC CAA149200061
    INDEX 01 00:00:00
FILE "12. Hanging By a Thread - Jann Arden.wav" WAVE
  TRACK 12 AUDIO
    TITLE "Hanging By a Thread"
    PERFORMER "Jann Arden"
    ISRC CAA149700310
    INDEX 01 00:00:00
FILE "13. How Good Things Are - Jann Arden.wav" WAVE
  TRACK 13 AUDIO
    TITLE "How Good Things Are"
    PERFORMER "Jann Arden"
    ISRC CAM190400124
    INDEX 01 00:00:00
Код:
AUDIOCHECKER v2.0 beta (build 457) - by Dester - opdester@freemail.hu
~~~~~~~~~~~~~~~~~~~~~~~~~~~~~~~~~~
Started at: пятница, 22. 04. 2011. - 3:05.55
13 files found
01 -===- G:\Music\Jann Arden - Best Of 2010 [FLAC] [h33t] - Kitlope\01. Could I Be Your Girl - Jann Arden.flac
  Extracted successfully
  Conclusion: this track is CDDA with probability 100%
  Tempfile successfully deleted.
02 -===- G:\Music\Jann Arden - Best Of 2010 [FLAC] [h33t] - Kitlope\02. Insensitive - Jann Arden.flac
  Extracted successfully
  Conclusion: this track is CDDA with probability 100%
  Tempfile successfully deleted.
03 -===- G:\Music\Jann Arden - Best Of 2010 [FLAC] [h33t] - Kitlope\03. Love Is the Only Soldier - Jann Arden.flac
  Extracted successfully
  Conclusion: this track is CDDA with probability 100%
  Tempfile successfully deleted.
04 -===- G:\Music\Jann Arden - Best Of 2010 [FLAC] [h33t] - Kitlope\04. Living Under June - Jann Arden.flac
  Extracted successfully
  Conclusion: this track is CDDA with probability 100%
  Tempfile successfully deleted.
05 -===- G:\Music\Jann Arden - Best Of 2010 [FLAC] [h33t] - Kitlope\05. Saved - Jann Arden.flac
  Extracted successfully
  Conclusion: this track is CDDA with probability 100%
  Tempfile successfully deleted.
06 -===- G:\Music\Jann Arden - Best Of 2010 [FLAC] [h33t] - Kitlope\06. Good Mother - Jann Arden.flac
  Extracted successfully
  Conclusion: this track is CDDA with probability 100%
  Tempfile successfully deleted.
07 -===- G:\Music\Jann Arden - Best Of 2010 [FLAC] [h33t] - Kitlope\07. I Would Die for You - Jann Arden.flac
  Extracted successfully
  Conclusion: this track is CDDA with probability 100%
  Tempfile successfully deleted.
08 -===- G:\Music\Jann Arden - Best Of 2010 [FLAC] [h33t] - Kitlope\08. Sleepless - Jann Arden.flac
  Extracted successfully
  Conclusion: this track is CDDA with probability 100%
  Tempfile successfully deleted.
09 -===- G:\Music\Jann Arden - Best Of 2010 [FLAC] [h33t] - Kitlope\09. Unloved - Jann Arden.flac
  Extracted successfully
  Conclusion: this track is CDDA with probability 100%
  Tempfile successfully deleted.
10 -===- G:\Music\Jann Arden - Best Of 2010 [FLAC] [h33t] - Kitlope\10. Waiting for Someone - Jann Arden.flac
  Extracted successfully
  Conclusion: this track is CDDA with probability 99%
  Tempfile successfully deleted.
11 -===- G:\Music\Jann Arden - Best Of 2010 [FLAC] [h33t] - Kitlope\11. I Just Don't Love You Anymore - Jann Arden.flac
  Extracted successfully
  Conclusion: this track is CDDA with probability 100%
  Tempfile successfully deleted.
12 -===- G:\Music\Jann Arden - Best Of 2010 [FLAC] [h33t] - Kitlope\12. Hanging By a Thread - Jann Arden.flac
  Extracted successfully
  Conclusion: this track is CDDA with probability 100%
  Tempfile successfully deleted.
13 -===- G:\Music\Jann Arden - Best Of 2010 [FLAC] [h33t] - Kitlope\13. How Good Things Are - Jann Arden.flac
  Extracted successfully
  Conclusion: this track is CDDA with probability 100%
  Tempfile successfully deleted.
Finished at: пятница, 22. 04. 2011. - 3:21.46 (operation time: 0:15.51)
Правила, инструкции, FAQ!!!
Торрент  Добавлен [26 мар 2019, 20:39] Скачать торрент Магнет ссылка
Скачать торрент
[ Размер 32.54 КБ / Просмотров 9 ]

Статус
Проверен 
 
Размер  381.03 МБ
Приватный: Нет (DHT включён)
.torrent скачан  1
 


     Отправить личное сообщение
   
Страница 1 из 1
Показать сообщения за:  Поле сортировки  
Начать новую тему Ответить на тему


Сейчас этот форум просматривают: нет зарегистрированных пользователей и гости: 0


Вы не можете начинать темы
Вы не можете отвечать на сообщения
Вы не можете редактировать свои сообщения
Вы не можете удалять свои сообщения
Вы не можете добавлять вложения

Перейти:  
cron