Начать новую тему Ответить на тему
Статистика раздачи
Размер: 539.11 МБ | Добавлен: 26 мар 2019, 19:49 | Скачали: 0
Сидеров: 0  [0 байт/сек]    Личеров: 0  [0 байт/сек]
Пред. тема | След. тема 

Автор
Сообщение

СообщениеДобавлено: 26 мар 2019, 19:49 

Ответить с цитатой 

Bet Bet / Bet Bet 20 Labakas Dziesmas
Жанр: Pop-Rock, Soft Rock, Indie
Страна-производитель диска: Latvia
Год издания диска: 2010
Издатель (лейбл): Mikrofona ieraksti
Номер по каталогу: MRCD 450
Страна: Latvia
Аудиокодек: FLAC (*.flac)
Тип рипа: image+.cue
Битрейт аудио: lossless
Продолжительность: 1:14
Источник (релизер): собственный рип оригинального диска
Наличие сканов в содержимом раздачи: да
Треклист:
1 Diena 3:23
2 Man vienalga viss 3:33
3 Ara rita 3:27
4 Mana mila meitene 2:27
5 Es tevi nemilu 3:13
6 Pieklauve 3:49
7 Tur talak 3:51
8 Vakara veja 5:22
9 Aizveja 3:19
10 Kapec man nav Mercedes 3:34
11 Pedejo reiz 3:57
12 Neparmet man 3:45
13 Mema dziesma 4:41
14 Cels kuru iet 3:58
15 Saksim visu no jauna 4:30
16 Nekadu problemu 3:28
17 Kaktuss 2:46
18 Dzambulaja 2:41
19 Nakts 4:40
20 Tu esi vejs 3:33
Код:
Exact Audio Copy V0.99 prebeta 5 from 4. May 2009
Отчёт EAC об извлечении, выполненном 10. марта 2012, 19:51
Bet Bet  / Bet Bet 20 Labakas Dziesmas
Дисковод: Optiarc DVD+-RW AD-7640A   Adapter: 1  ID: 0
Режим чтения                 : Достоверность
Использование точного потока : Да
Отключение кэша аудио        : Да
Использование указателей C2  : Нет
Коррекция смещения при чтении                     : 6
Способность читать области Lead-in и Lead-out     : Нет
Заполнение пропущенных сэмплов тишиной            : Да
Удаление блоков с тишиной в начале и конце        : Нет
При вычислениях CRC использовались нулевые сэмплы : Да
Интерфейс                                         : Установленный внешний ASPI-интерфейс
Выходной формат          : Пользовательский кодировщик
Выбранный битрейт        : 768 kBit/s
Качество                 : Высокий
Добавление ID3-тэга      : Нет
Утилита сжатия           : C:\Program Files\Exact Audio Copy\FLAC\FLAC.EXE
Дополнительные параметры : -6 -V -T "ARTIST=%a" -T "TITLE=%t" -T "ALBUM=%g" -T "DATE=%y" -T "TRACKNUMBER=%n" -T "GENRE=%m" -T "COMMENT=%e" %s -o %d
TOC извлечённого CD
     Трек |   Старт  | Длительность | Начальный сектор | Конечный сектор
    ---------------------------------------------------------------------
       1  |  0:00.00 |    3:23.63   |           0      |      15287
       2  |  3:23.63 |    3:33.38   |       15288      |      31300
       3  |  6:57.26 |    3:27.62   |       31301      |      46887
       4  | 10:25.13 |    2:27.43   |       46888      |      57955
       5  | 12:52.56 |    3:13.04   |       57956      |      72434
       6  | 16:05.60 |    3:49.30   |       72435      |      89639
       7  | 19:55.15 |    3:51.00   |       89640      |     106964
       8  | 23:46.15 |    5:22.44   |      106965      |     131158
       9  | 29:08.59 |    3:19.40   |      131159      |     146123
      10  | 32:28.24 |    3:34.21   |      146124      |     162194
      11  | 36:02.45 |    3:57.07   |      162195      |     179976
      12  | 39:59.52 |    3:45.49   |      179977      |     196900
      13  | 43:45.26 |    4:41.18   |      196901      |     217993
      14  | 48:26.44 |    3:58.00   |      217994      |     235843
      15  | 52:24.44 |    4:30.18   |      235844      |     256111
      16  | 56:54.62 |    3:28.11   |      256112      |     271722
      17  | 60:22.73 |    2:46.01   |      271723      |     284173
      18  | 63:08.74 |    2:41.71   |      284174      |     296319
      19  | 65:50.70 |    4:40.35   |      296320      |     317354
      20  | 70:31.30 |    3:33.68   |      317355      |     333397
Характеристики диапазона извлечения и сообщения об ошибках
Выбранный диапазон
     Имя файла F:\Bet Bet  - Bet Bet 20 Labakas Dziesmas\Bet Bet  - Bet Bet 20 Labakas Dziesmas.wav
     Пиковый уровень 99.4 %
     Качество диапазона 100.0 %
     CRC теста 645D4AAF
     CRC копии 645D4AAF
     Копирование... OK
Ошибок не произошло
AccurateRip: сводка
Трек  1  нет в базе данных
Трек  2  нет в базе данных
Трек  3  нет в базе данных
Трек  4  нет в базе данных
Трек  5  нет в базе данных
Трек  6  нет в базе данных
Трек  7  нет в базе данных
Трек  8  нет в базе данных
Трек  9  нет в базе данных
Трек 10  нет в базе данных
Трек 11  нет в базе данных
Трек 12  нет в базе данных
Трек 13  нет в базе данных
Трек 14  нет в базе данных
Трек 15  нет в базе данных
Трек 16  нет в базе данных
Трек 17  нет в базе данных
Трек 18  нет в базе данных
Трек 19  нет в базе данных
Трек 20  нет в базе данных
Ни одного трека нет в базе AccurateRip
Конец отчёта
Код:
REM GENRE Indie
REM DATE 2011
REM DISCID 21115D14
REM COMMENT "ExactAudioCopy v0.99pb5"
PERFORMER "Bet Bet "
TITLE "Bet Bet 20 Labakas Dziesmas"
FILE "Bet Bet  - Bet Bet 20 Labakas Dziesmas.flac" WAVE
  TRACK 01 AUDIO
    TITLE "Diena"
    PERFORMER "Bet Bet "
    FLAGS DCP
    INDEX 01 00:00:00
  TRACK 02 AUDIO
    TITLE "Man vienalga viss"
    PERFORMER "Bet Bet "
    FLAGS DCP
    INDEX 00 03:21:63
    INDEX 01 03:23:63
  TRACK 03 AUDIO
    TITLE "Ara rita"
    PERFORMER "Bet Bet "
    FLAGS DCP
    INDEX 00 06:55:26
    INDEX 01 06:57:26
  TRACK 04 AUDIO
    TITLE "Mana mila meitene"
    PERFORMER "Bet Bet "
    FLAGS DCP
    INDEX 00 10:23:13
    INDEX 01 10:25:13
  TRACK 05 AUDIO
    TITLE "Es tevi nemilu"
    PERFORMER "Bet Bet "
    FLAGS DCP
    INDEX 00 12:50:56
    INDEX 01 12:52:56
  TRACK 06 AUDIO
    TITLE "Pieklauve"
    PERFORMER "Bet Bet "
    FLAGS DCP
    INDEX 00 16:03:60
    INDEX 01 16:05:60
  TRACK 07 AUDIO
    TITLE "Tur talak"
    PERFORMER "Bet Bet "
    FLAGS DCP
    INDEX 00 19:53:15
    INDEX 01 19:55:15
  TRACK 08 AUDIO
    TITLE "Vakara veja"
    PERFORMER "Bet Bet "
    FLAGS DCP
    INDEX 00 23:44:15
    INDEX 01 23:46:15
  TRACK 09 AUDIO
    TITLE "Aizveja"
    PERFORMER "Bet Bet "
    FLAGS DCP
    INDEX 00 29:06:59
    INDEX 01 29:08:59
  TRACK 10 AUDIO
    TITLE "Kapec man nav Mercedes"
    PERFORMER "Bet Bet "
    FLAGS DCP
    INDEX 00 32:26:24
    INDEX 01 32:28:24
  TRACK 11 AUDIO
    TITLE "Pedejo reiz"
    PERFORMER "Bet Bet "
    FLAGS DCP
    INDEX 00 36:00:45
    INDEX 01 36:02:45
  TRACK 12 AUDIO
    TITLE "Neparmet man "
    PERFORMER "Bet Bet "
    FLAGS DCP
    INDEX 00 39:57:52
    INDEX 01 39:59:52
  TRACK 13 AUDIO
    TITLE "Mema dziesma"
    PERFORMER "Bet Bet "
    FLAGS DCP
    INDEX 00 43:43:26
    INDEX 01 43:45:26
  TRACK 14 AUDIO
    TITLE "Cels kuru iet"
    PERFORMER "Bet Bet "
    FLAGS DCP
    INDEX 00 48:24:44
    INDEX 01 48:26:44
  TRACK 15 AUDIO
    TITLE "Saksim visu no jauna"
    PERFORMER "Bet Bet "
    FLAGS DCP
    INDEX 00 52:22:44
    INDEX 01 52:24:44
  TRACK 16 AUDIO
    TITLE "Nekadu problemu"
    PERFORMER "Bet Bet "
    FLAGS DCP
    INDEX 00 56:52:62
    INDEX 01 56:54:62
  TRACK 17 AUDIO
    TITLE "Kaktuss"
    PERFORMER "Bet Bet "
    FLAGS DCP
    INDEX 00 60:20:73
    INDEX 01 60:22:73
  TRACK 18 AUDIO
    TITLE "Dzambulaja"
    PERFORMER "Bet Bet "
    FLAGS DCP
    INDEX 00 63:06:74
    INDEX 01 63:08:74
  TRACK 19 AUDIO
    TITLE "Nakts"
    PERFORMER "Bet Bet "
    FLAGS DCP
    INDEX 00 65:48:70
    INDEX 01 65:50:70
  TRACK 20 AUDIO
    TITLE "Tu esi vejs"
    PERFORMER "Bet Bet "
    FLAGS DCP
    INDEX 00 70:29:30
    INDEX 01 70:31:30
Код:
[url=https://fastpic.ru/view/28/2012/0310/8c62a01052ba76488952d70c8f22f658.jpg.html][img]http://i28.fastpic.ru/thumb/2012/0310/58/8c62a01052ba76488952d70c8f22f658.jpeg[/img][/url] [url=https://fastpic.ru/view/32/2012/0310/0812ef4375f6cfd647685d1377e2df1e.jpg.html][img]http://i32.fastpic.ru/thumb/2012/0310/1e/0812ef4375f6cfd647685d1377e2df1e.jpeg[/img][/url]
AUDIOCHECKER v2.0 beta (build 457) - by Dester - opdester@freemail.hu
~~~~~~~~~~~~~~~~~~~~~~~~~~~~~~~~~~
-=== DO NOT EDIT THIS FILE! ===-
Path: ...\Bet Bet  - Bet Bet 20 Labakas Dziesmas
1 -=- Bet Bet  - Bet Bet 20 Labakas Dziesmas.wav -=- CDDA (100%)
187502324
Доп. информация: Замечательный альбом старейшей латвийской команды.
Сам я не поклонник прибалтийской музыки, не поклонник данного стиля, но когда впервые в живую услышал эту группу, то первым образом сразу же попросил своих друзей из Латвии купить мне CD этой группы.
Прекрасная разнообразная музыка, высокое качество исполнения, сведения и записи.
Советую в коллекцию! Вам понравится. Тем более, что диски Bet Bet и у себя на родине в Латвии большая редкость.
Остальные мои раздачи: http://rutracker.org/forum/tracker.php?rid=11286418
Правила, инструкции, FAQ!!!
Торрент  Добавлен [26 мар 2019, 19:49] Скачать торрент Магнет ссылка
Скачать торрент
[ Размер 11.73 КБ / Просмотров 2 ]

Статус
Проверен 
 
Размер  539.11 МБ
Приватный: Нет (DHT включён)
.torrent скачан  0
 


     Отправить личное сообщение
   
Страница 1 из 1
Показать сообщения за:  Поле сортировки  
Начать новую тему Ответить на тему


Сейчас этот форум просматривают: нет зарегистрированных пользователей и гости: 0


Вы не можете начинать темы
Вы не можете отвечать на сообщения
Вы не можете редактировать свои сообщения
Вы не можете удалять свои сообщения
Вы не можете добавлять вложения

Перейти:  
cron