Начать новую тему Ответить на тему
Статистика раздачи
Размер: 357.79 МБ | Добавлен: 26 мар 2019, 19:12 | Скачали: 0
Сидеров: 0  [0 байт/сек]    Личеров: 0  [0 байт/сек]
Пред. тема | След. тема 

Автор
Сообщение

СообщениеДобавлено: 26 мар 2019, 19:12 

Ответить с цитатой 

Girl Overboard / Paint A Picture
Жанр: Pop Rock, Soft Rock
Носитель: CD
Страна-производитель диска (релиза): Germany
Год издания: 1989
Издатель (лейбл): RCA
Номер по каталогу: PD90491
Страна исполнителя (группы): Australia
Аудиокодек: FLAC (*.flac)
Тип рипа: image+.cue
Битрейт аудио: lossless
Продолжительность: 00:51:28
Источник (релизер): CD
Наличие сканов в содержимом раздачи: да
Треклист:
1. The Love We Make 3:39
2. I Can't Believe 4:15
3. Some Things Never Change 3:58
4. In The Evening 4:10
5. When You Do 3:58
6. Permanent Friend 3:49
7. Tear It Down 4:02
8. Dreaming 4:05
9. Wrap Your Arms Around Me 3:11
10. Trouble 3:36
11. Come And Play 3:09
12. When The Word Came Down 3:38
13. Blue Falls The Rain 5:35
Код:
Exact Audio Copy V1.1 from 23. June 2015
EAC extraction logfile from 20. January 2016, 16:10
Girl Overboard / Paint a Picture
Used drive  : Optiarc DVD RW AD-5280S   Adapter: 1  ID: 0
Read mode               : Secure
Utilize accurate stream : Yes
Defeat audio cache      : Yes
Make use of C2 pointers : No
Read offset correction                      : 48
Overread into Lead-In and Lead-Out          : No
Fill up missing offset samples with silence : Yes
Delete leading and trailing silent blocks   : No
Null samples used in CRC calculations       : Yes
Used interface                              : Native Win32 interface for Win NT & 2000
Used output format              : User Defined Encoder
Selected bitrate                : 896 kBit/s
Quality                         : High
Add ID3 tag                     : No
Command line compressor         : C:\Program Files (x86)\Exact Audio Copy\Flac\flac.exe
Additional command line options : -V -8 -T "Date=%year%" -T "Genre=%genre%" %source%
TOC of the extracted CD
     Track |   Start  |  Length  | Start sector | End sector
    ---------------------------------------------------------
        1  |  0:00.33 |  3:41.65 |        33    |    16672
        2  |  3:42.23 |  4:16.60 |     16673    |    35932
        3  |  7:59.08 |  4:00.05 |     35933    |    53937
        4  | 11:59.13 |  4:11.40 |     53938    |    72802
        5  | 16:10.53 |  3:58.65 |     72803    |    90717
        6  | 20:09.43 |  3:50.65 |     90718    |   108032
        7  | 24:00.33 |  4:03.60 |    108033    |   126317
        8  | 28:04.18 |  4:06.40 |    126318    |   144807
        9  | 32:10.58 |  3:14.00 |    144808    |   159357
       10  | 35:24.58 |  3:38.00 |    159358    |   175707
       11  | 39:02.58 |  3:10.60 |    175708    |   190017
       12  | 42:13.43 |  3:39.72 |    190018    |   206514
       13  | 45:53.40 |  5:34.65 |    206515    |   231629
Range status and errors
Selected range
     Filename F:\МУЗЫКА\Girl Overboard - Paint a Picture 1989\Girl Overboard - Paint a Picture.wav
     Peak level 100.0 %
     Extraction speed 3.8 X
     Range quality 100.0 %
     Test CRC E07E58D6
     Copy CRC E07E58D6
     Copy OK
No errors occurred
AccurateRip summary
Track  1  accurately ripped (confidence 2)  [796CFDC4]  (AR v1)
Track  2  accurately ripped (confidence 2)  [FE8198AB]  (AR v1)
Track  3  accurately ripped (confidence 2)  [16820596]  (AR v1)
Track  4  accurately ripped (confidence 2)  [CC970DF8]  (AR v1)
Track  5  accurately ripped (confidence 2)  [289980E2]  (AR v1)
Track  6  accurately ripped (confidence 2)  [AC0A55EB]  (AR v1)
Track  7  accurately ripped (confidence 2)  [FFACA976]  (AR v1)
Track  8  accurately ripped (confidence 2)  [26F2CE28]  (AR v1)
Track  9  accurately ripped (confidence 2)  [812263D2]  (AR v1)
Track 10  accurately ripped (confidence 2)  [6801A422]  (AR v1)
Track 11  accurately ripped (confidence 2)  [25B86878]  (AR v1)
Track 12  accurately ripped (confidence 2)  [70D05FE1]  (AR v1)
Track 13  accurately ripped (confidence 2)  [4867F00C]  (AR v1)
All tracks accurately ripped
End of status report
---- CUETools DB Plugin V2.1.6
[CTDB TOCID: Go169BEPBLNjJklWR.YNovv0YpA-] found
Submit result: already submitted
Track | CTDB Status
  1   | (1/1) Accurately ripped
  2   | (1/1) Accurately ripped
  3   | (1/1) Accurately ripped
  4   | (1/1) Accurately ripped
  5   | (1/1) Accurately ripped
  6   | (1/1) Accurately ripped
  7   | (1/1) Accurately ripped
  8   | (1/1) Accurately ripped
  9   | (1/1) Accurately ripped
 10   | (1/1) Accurately ripped
 11   | (1/1) Accurately ripped
 12   | (1/1) Accurately ripped
 13   | (1/1) Accurately ripped
==== Log checksum 57DF68AFB76936344AEE38EF57A41DC5025CF57DF09D720EF79376A73A416BF1 ====
Australian Rock band from the late 80's fronted by Lisa Schouw.
Правила, инструкции, FAQ!!!
Торрент  Добавлен [26 мар 2019, 19:12] Скачать торрент Магнет ссылка
Скачать торрент
[ Размер 15.07 КБ / Просмотров 0 ]

Статус
Проверен 
 
Размер  357.79 МБ
Приватный: Нет (DHT включён)
.torrent скачан  0
 


     Отправить личное сообщение
   
Страница 1 из 1
Показать сообщения за:  Поле сортировки  
Начать новую тему Ответить на тему


Сейчас этот форум просматривают: нет зарегистрированных пользователей и гости: 0


Вы не можете начинать темы
Вы не можете отвечать на сообщения
Вы не можете редактировать свои сообщения
Вы не можете удалять свои сообщения
Вы не можете добавлять вложения

Перейти:  
cron