Начать новую тему Ответить на тему
Статистика раздачи
Размер: 241.87 МБ | Добавлен: 26 мар 2019, 20:42 | Скачали: 0
Сидеров: 0  [0 байт/сек]    Личеров: 0  [0 байт/сек]
Пред. тема | След. тема 

Автор
Сообщение

СообщениеДобавлено: 26 мар 2019, 20:42 

Ответить с цитатой 

James McCarty: Out of the Dark (1994)
Жанр: Pop-Rock, Soft Rock, Folk-Rock
Страна-производитель диска: USA
Год издания: 1994
Издатель (лейбл): Higher Octave Music
Номер по каталогу: HOMCD 7057
Аудиокодек: FLAC (*.flac)
Тип рипа: tracks+.cue
Битрейт аудио: lossless
Продолжительность: 00:40:37
Источник (релизер): рип мой. диск тоже.
Наличие сканов в содержимом раздачи: фото в папке Artwork
Треклист:
01. Out Of The Dark (4:42)
02. We're Still Dreamers (5:00)
03. Signs From An Age Gone By (5:25)
04. Just A Breath Away (4:42)
05. Just Breaking Through (5:03)
06. What If Summer Never Came (3:46)
07. Still You Don't Believe (3:31)
08. Longing (Link) (0:34)
09. Home Is Where The Heart Is (4:11)
10. Back To The Earth (3:43)
1-й сольник ударника, бэк-вокалиста и автора песен групп Yardbirds, Renaissance, Illusion (если я правильно понял из описания)
Код:
Exact Audio Copy V1.0 beta 1 from 15. November 2010
EAC extraction logfile from 18. February 2013, 18:54
James McCarty / Out Of The Dark
Used drive  : Optiarc DVD RW AD-7200A   Adapter: 0  ID: 0
Read mode               : Secure
Utilize accurate stream : Yes
Defeat audio cache      : Yes
Make use of C2 pointers : No
Read offset correction                      : 48
Overread into Lead-In and Lead-Out          : No
Fill up missing offset samples with silence : Yes
Delete leading and trailing silent blocks   : No
Null samples used in CRC calculations       : Yes
Used interface                              : Native Win32 interface for Win NT & 2000
Gap handling                                : Appended to previous track
Used output format              : User Defined Encoder
Selected bitrate                : 768 kBit/s
Quality                         : High
Add ID3 tag                     : No
Command line compressor         : C:\Program Files\Exact Audio Copy\Flac\flac.exe
Additional command line options : -8 -V -T "ARTIST=%a" -T "TITLE=%t" -T "ALBUM=%g" -T "DATE=%y" -T "TRACKNUMBER=%n" -T "TOTALTRACKS=%x" -T "GENRE=%m" -T "ALBUMARTIST=%v" -T "ALBUM ARTIST=%v" -T "COMMENT=EAC Secure Mode, Test & Copy, AccurateRip, FLAC -8" %s
TOC of the extracted CD
     Track |   Start  |  Length  | Start sector | End sector
    ---------------------------------------------------------
        1  |  0:00.00 |  4:41.47 |         0    |    21121
        2  |  4:41.47 |  5:00.15 |     21122    |    43636
        3  |  9:41.62 |  5:24.38 |     43637    |    67974
        4  | 15:06.25 |  4:42.30 |     67975    |    89154
        5  | 19:48.55 |  5:03.20 |     89155    |   111899
        6  | 24:52.00 |  3:46.35 |    111900    |   128884
        7  | 28:38.35 |  3:30.42 |    128885    |   144676
        8  | 32:09.02 |  0:34.15 |    144677    |   147241
        9  | 32:43.17 |  4:10.70 |    147242    |   166061
       10  | 36:54.12 |  3:42.70 |    166062    |   182781
Track  1
     Filename D:\James Mccarty - Out of the Dark (1994) [FLAC]\01 - Out Of The Dark.wav
     Pre-gap length  0:00:02.00
     Peak level 100.0 %
     Extraction speed 2.4 X
     Track quality 100.0 %
     Test CRC FBB31DF4
     Copy CRC FBB31DF4
     Accurately ripped (confidence 1)  [8DC8376D]
     Copy OK
Track  2
     Filename D:\James Mccarty - Out of the Dark (1994) [FLAC]\02 - We're Still Dreamers.wav
     Pre-gap length  0:00:03.29
     Peak level 100.0 %
     Extraction speed 2.5 X
     Track quality 99.9 %
     Test CRC 55102895
     Copy CRC 55102895
     Accurately ripped (confidence 1)  [44C61641]
     Copy OK
Track  3
     Filename D:\James Mccarty - Out of the Dark (1994) [FLAC]\03 - Signs From An Age Gone By.wav
     Pre-gap length  0:00:02.66
     Peak level 100.0 %
     Extraction speed 3.1 X
     Track quality 100.0 %
     Test CRC E919026C
     Copy CRC E919026C
     Accurately ripped (confidence 1)  [4426FCFA]
     Copy OK
Track  4
     Filename D:\James Mccarty - Out of the Dark (1994) [FLAC]\04 - Just A Breath Away.wav
     Pre-gap length  0:00:02.84
     Peak level 100.0 %
     Extraction speed 3.3 X
     Track quality 100.0 %
     Test CRC 728A090C
     Copy CRC 728A090C
     Accurately ripped (confidence 1)  [C85A5470]
     Copy OK
Track  5
     Filename D:\James Mccarty - Out of the Dark (1994) [FLAC]\05 - Just Breaking Through.wav
     Pre-gap length  0:00:04.04
     Peak level 100.0 %
     Extraction speed 3.6 X
     Track quality 100.0 %
     Test CRC 4C9A7252
     Copy CRC 4C9A7252
     Accurately ripped (confidence 1)  [E69F1949]
     Copy OK
Track  6
     Filename D:\James Mccarty - Out of the Dark (1994) [FLAC]\06 - What If Summer Never Came.wav
     Pre-gap length  0:00:02.77
     Peak level 100.0 %
     Extraction speed 3.2 X
     Track quality 99.9 %
     Test CRC A44751F4
     Copy CRC A44751F4
     Accurately ripped (confidence 1)  [8779B93B]
     Copy OK
Track  7
     Filename D:\James Mccarty - Out of the Dark (1994) [FLAC]\07 - Still You Don't Believe.wav
     Pre-gap length  0:00:03.00
     Peak level 99.7 %
     Extraction speed 3.7 X
     Track quality 100.0 %
     Test CRC 8F9DF8BE
     Copy CRC 8F9DF8BE
     Accurately ripped (confidence 1)  [280B844E]
     Copy OK
Track  8
     Filename D:\James Mccarty - Out of the Dark (1994) [FLAC]\08 - Longing (Link).wav
     Pre-gap length  0:00:03.22
     Peak level 88.8 %
     Extraction speed 1.3 X
     Track quality 99.6 %
     Test CRC B1708A8B
     Copy CRC B1708A8B
     Accurately ripped (confidence 1)  [E80956D4]
     Copy OK
Track  9
     Filename D:\James Mccarty - Out of the Dark (1994) [FLAC]\09 - Home Is Where The Heart Is.wav
     Pre-gap length  0:00:02.73
     Peak level 100.0 %
     Extraction speed 4.0 X
     Track quality 100.0 %
     Test CRC 1A049179
     Copy CRC 1A049179
     Accurately ripped (confidence 1)  [8671CBEF]
     Copy OK
Track 10
     Filename D:\James Mccarty - Out of the Dark (1994) [FLAC]\10 - Back To The Earth.wav
     Pre-gap length  0:00:02.89
     Peak level 100.0 %
     Extraction speed 4.1 X
     Track quality 100.0 %
     Test CRC B450AA4E
     Copy CRC B450AA4E
     Accurately ripped (confidence 1)  [AA63ADF0]
     Copy OK
All tracks accurately ripped
No errors occurred
End of status report
==== Log checksum AEB81E1426D2ECED7F5D2F225785191F4C161B1822FC2491540B2EAC3B7C7204 ====
Код:
REM GENRE Pop-Folk
REM DATE 1994
REM DISCID 8509850A
REM COMMENT "ExactAudioCopy v1.0b1"
PERFORMER "James McCarty"
TITLE "Out Of The Dark"
FILE "01 - Out Of The Dark.wav" WAVE
  TRACK 01 AUDIO
    TITLE "Out Of The Dark"
    PERFORMER "James McCarty"
    INDEX 01 00:00:00
  TRACK 02 AUDIO
    TITLE "We're Still Dreamers"
    PERFORMER "James McCarty"
    INDEX 00 04:38:25
FILE "02 - We're Still Dreamers.wav" WAVE
    INDEX 01 00:00:00
  TRACK 03 AUDIO
    TITLE "Signs From An Age Gone By"
    PERFORMER "James McCarty"
    INDEX 00 04:57:40
FILE "03 - Signs From An Age Gone By.wav" WAVE
    INDEX 01 00:00:00
  TRACK 04 AUDIO
    TITLE "Just A Breath Away"
    PERFORMER "James McCarty"
    INDEX 00 05:21:50
FILE "04 - Just A Breath Away.wav" WAVE
    INDEX 01 00:00:00
  TRACK 05 AUDIO
    TITLE "Just Breaking Through"
    PERFORMER "James McCarty"
    INDEX 00 04:38:27
FILE "05 - Just Breaking Through.wav" WAVE
    INDEX 01 00:00:00
  TRACK 06 AUDIO
    TITLE "What If Summer Never Came"
    PERFORMER "James McCarty"
    INDEX 00 05:00:37
FILE "06 - What If Summer Never Came.wav" WAVE
    INDEX 01 00:00:00
  TRACK 07 AUDIO
    TITLE "Still You Don't Believe"
    PERFORMER "James McCarty"
    INDEX 00 03:43:35
FILE "07 - Still You Don't Believe.wav" WAVE
    INDEX 01 00:00:00
  TRACK 08 AUDIO
    TITLE "Longing (Link)"
    PERFORMER "James McCarty"
    INDEX 00 03:27:25
FILE "08 - Longing (Link).wav" WAVE
    INDEX 01 00:00:00
  TRACK 09 AUDIO
    TITLE "Home Is Where The Heart Is"
    PERFORMER "James McCarty"
    INDEX 00 00:31:35
FILE "09 - Home Is Where The Heart Is.wav" WAVE
    INDEX 01 00:00:00
  TRACK 10 AUDIO
    TITLE "Back To The Earth"
    PERFORMER "James McCarty"
    INDEX 00 04:08:03
FILE "10 - Back To The Earth.wav" WAVE
    INDEX 01 00:00:00
Jim McCarty has had a long, varied history. First, he was drummer/backing vocalist/songwriter for the pioneering British invasion band, the Yardbirds. Then, he performed the same role as a founding member of one of the first progessive rock bands, Renaissance. Then, in the mid 70's, he and other members of Renaissance formed another prog band, Illusion, where he was the primary creative force and songwriter, acoustic guitar player, and sung lead vocals along with Jane Relf.
This, his first solo album, shows yet another side of Jim's talent. Jim, again, wrote and sings all the songs, but moves to keyboards, as well as playing some of the drums. While the lyrics explore, as he usually does, mystical themes and feelings, this time he puts them together with gentle pop sounds. While he isn't the strongest singer in the world, his lead vocals are better here than with Illusion or Renaissance, very much out in front of the songs. The title songs pleasantly opens things up. My other favorites are the hypnotic, drifting "Signs from an Age Gone By" and the cheerful closer "Back to the Earth". Renaissance fans will like the fact that Jane Relf returns for some backing vocals. The best performance by her is on the love song "Just a Breath Away", a percussion-less ballad in which she harmonizes gorgeously with Jim.
The rest of the album is a relaxing listen from beginning to end. It's extremely gentle music, only slighly resembling Jim's earlier prog work. At only 40 minutes, though, it's not boring, and it's more conventionally "hooky" than instrumental New Age music. Nice music if you're in a mellow mood, or want to be in one. ~ By R. Josef, Amazon
Правила, инструкции, FAQ!!!
Торрент  Добавлен [26 мар 2019, 20:42] Скачать торрент Магнет ссылка
Скачать торрент
[ Размер 20.44 КБ / Просмотров 1 ]

Статус
Проверен 
 
Размер  241.87 МБ
Приватный: Нет (DHT включён)
.torrent скачан  0
 


     Отправить личное сообщение
   
Страница 1 из 1
Показать сообщения за:  Поле сортировки  
Начать новую тему Ответить на тему


Сейчас этот форум просматривают: нет зарегистрированных пользователей и гости: 0


Вы не можете начинать темы
Вы не можете отвечать на сообщения
Вы не можете редактировать свои сообщения
Вы не можете удалять свои сообщения
Вы не можете добавлять вложения

Перейти:  
cron