Начать новую тему Ответить на тему
Статистика раздачи
Размер: 347.54 МБ | Добавлен: 26 мар 2019, 18:42 | Скачали: 0
Сидеров: 2  [0 байт/сек]    Личеров: 1  [0 байт/сек]
Пред. тема | След. тема 

Автор
Сообщение

СообщениеДобавлено: 26 мар 2019, 18:42 

Ответить с цитатой 

Eric Carmen / Eric Carmen
Жанр: pop rock, soft rock
Носитель: CD
Страна-производитель диска (релиза): Japan
Год издания: 1975
Издатель (лейбл): Arista (BMG Japan)
Номер по каталогу: BVCM-37876
Страна исполнителя (группы): USA
Аудиокодек: FLAC (*.flac)
Тип рипа: image+.cue
Битрейт аудио: lossless
Продолжительность: 00:49:20
Источник (релизер): собственный рип
Наличие сканов в содержимом раздачи: да
Треклист:
1 Sunrise 5:21
2 That's Rock & Roll 3:10
3 Never Gonna Fall In Love Again 3:45
4 All By Myself 7:13
5 Last Night 2:57
6 My Girl 3:02
7 Great Expectations 3:03
8 Everything 2:01
9 No Hard Feelings 5:40
10 On Broadway 3:26
11 All By Myself (single edit)
12 All By Myself (alternate edit)
Код:
Exact Audio Copy V1.1 from 23. June 2015
Отчёт EAC об извлечении, выполненном 2. февраля 2016, 12:35
Eric Carmen / Eric Carmen
Дисковод: ASUS    DRW-24B3ST   Adapter: 0  ID: 0
Режим чтения                 : Достоверность
Использование точного потока : Да
Отключение кэша аудио        : Да
Использование указателей C2  : Нет
Коррекция смещения при чтении                     : 6
Способность читать области Lead-in и Lead-out     : Нет
Заполнение пропущенных сэмплов тишиной            : Да
Удаление блоков с тишиной в начале и конце        : Нет
При вычислениях CRC использовались нулевые сэмплы : Да
Интерфейс                                         : Установленный внешний ASPI-интерфейс
Выходной формат          : Пользовательский кодировщик
Выбранный битрейт        : 896 kBit/s
Качество                 : Высокий
Добавление ID3-тега      : Нет
Утилита сжатия           : C:\Program Files (x86)\Exact Audio Copy\FLAC\FLAC.EXE
Дополнительные параметры : -6 -V -T "ARTIST=%artist%" -T "TITLE=%title%" -T "ALBUM=%albumtitle%" -T "DATE=%year%" -T "TRACKNUMBER=%tracknr%" -T "GENRE=%genre%" -T "COMMENT=%comment%" -T "BAND=%albuminterpret%" -T "ALBUMARTIST=%albuminterpret%" -T "COMPOSER=%composer%" %haslyrics%--tag-from-file=LYRICS="%lyricsfile%"%haslyrics% -T "DISCNUMBER=%cdnumber%" -T "TOTALDISCS=%totalcds%" -T "TOTALTRACKS=%numtracks%" %hascover%--picture="%coverfile%"%hascover% %source% -o %dest%
TOC извлечённого CD
     Трек |   Старт  | Длительность | Начальный сектор | Конечный сектор
    ---------------------------------------------------------------------
       1  |  0:00.00 |    5:21.70   |           0      |      24144
       2  |  5:21.70 |    3:11.51   |       24145      |      38520
       3  |  8:33.46 |    3:47.52   |       38521      |      55597
       4  | 12:21.23 |    7:17.31   |       55598      |      88403
       5  | 19:38.54 |    2:59.70   |       88404      |     101898
       6  | 22:38.49 |    3:01.40   |      101899      |     115513
       7  | 25:40.14 |    3:04.10   |      115514      |     129323
       8  | 28:44.24 |    1:59.36   |      129324      |     138284
       9  | 30:43.60 |    5:39.55   |      138285      |     163764
      10  | 36:23.40 |    3:28.20   |      163765      |     179384
      11  | 39:51.60 |    4:33.13   |      179385      |     199872
      12  | 44:24.73 |    4:54.42   |      199873      |     221964
Характеристики диапазона извлечения и сообщения об ошибках
Выбранный диапазон
     Имя файла E:\Torrents\Eric Carmen - 1975 - Eric Carmen\Eric Carmen - Eric Carmen.wav
     Пиковый уровень 100.0 %
     Скорость извлечения 8.1 X
     Качество диапазона 100.0 %
     CRC теста B1334FDC
     CRC копии B1334FDC
     Копирование... OK
Ошибок не произошло
Конец отчёта
==== Контрольная сумма отчёта 779E4B4245B5BF5B5EDF5D66DD2CA0193458880E4FB0CE39C058591CA8FF7EA0 ====
Правила, инструкции, FAQ!!!
Торрент  Добавлен [26 мар 2019, 18:42] Скачать торрент Магнет ссылка
Скачать торрент
[ Размер 14.67 КБ / Просмотров 5 ]

Статус
Проверен 
 
Размер  347.54 МБ
Приватный: Нет (DHT включён)
.torrent скачан  0
 


     Отправить личное сообщение
   
Страница 1 из 1
Показать сообщения за:  Поле сортировки  
Начать новую тему Ответить на тему


Сейчас этот форум просматривают: нет зарегистрированных пользователей и гости: 0


Вы не можете начинать темы
Вы не можете отвечать на сообщения
Вы не можете редактировать свои сообщения
Вы не можете удалять свои сообщения
Вы не можете добавлять вложения

Перейти:  
cron