Начать новую тему Ответить на тему
Статистика раздачи
Размер: 421.23 МБ | Добавлен: 26 мар 2019, 20:59 | Скачали: 0
Сидеров: 3  [0 байт/сек]    Личеров: 1  [0 байт/сек]
Пред. тема | След. тема 

Автор
Сообщение

СообщениеДобавлено: 26 мар 2019, 20:59 

Ответить с цитатой 

Elvis Costello & The Roots / Wise Up Ghost [Deluxe Edition]
Жанр: Pop Rock/Soft Rock
Год издания: September 17, 2013
Издатель (лейбл): Blue Note
Номер по каталогу: B001875002
Страна: US
Аудиокодек: FLAC (*.flac)
Тип рипа: tracks+.cue
Битрейт аудио: lossless
Продолжительность: 01:12:10
Источник (релизер): SmooveTaste [what.cd]
Наличие сканов в содержимом раздачи: нет
Треклист:
01. Walk Us Uptown
02. Sugar Won't Work
03. Refuse to Be Saved
04. Wake Me Up
05. Tripwire
06. Stick Out Your Tongue
07. Come the Meantimes
08. (She Might Be a) Grenade
09. Cinco minutos con vos (with La Marisoul)
10. Viceroy's Row
11. Wise Up Ghost
12. If I Could Believe
13. My New Haunt
14. Can You Hear Me?
15. The Puppet Has Cut His Strings
Код:
X Lossless Decoder version 20130720 (144.0)
XLD extraction logfile from 2013-09-18 10:22:25 -0700
Elvis Costello and The Roots / Wise Up Ghost
Used drive : PLEXTOR BDDVDR PX-B310U (revision 1.07)
Media type : Pressed CD
Ripper mode             : XLD Secure Ripper
Disable audio cache     : OK for the drive with a cache less than 1375KiB
Make use of C2 pointers : NO
Read offset correction  : 6
Max retry count         : 20
Gap status              : Analyzed, Appended
TOC of the extracted CD
     Track |   Start  |  Length  | Start sector | End sector
    ---------------------------------------------------------
        1  | 00:00:00 | 03:22:53 |         0    |    15202
        2  | 03:22:53 | 03:31:11 |     15203    |    31038
        3  | 06:53:64 | 04:26:18 |     31039    |    51006
        4  | 11:20:07 | 05:53:53 |     51007    |    77534
        5  | 17:13:60 | 04:28:02 |     77535    |    97636
        6  | 21:41:62 | 05:27:61 |     97637    |   122222
        7  | 27:09:48 | 03:52:44 |    122223    |   139666
        8  | 31:02:17 | 04:35:62 |    139667    |   160353
        9  | 35:38:04 | 05:01:20 |    160354    |   182948
       10  | 40:39:24 | 05:01:36 |    182949    |   205559
       11  | 45:40:60 | 06:26:45 |    205560    |   234554
       12  | 52:07:30 | 03:58:23 |    234555    |   252427
       13  | 56:05:53 | 04:41:34 |    252428    |   273536
       14  | 60:47:12 | 06:27:06 |    273537    |   302567
       15  | 67:14:18 | 04:56:45 |    302568    |   324812
AccurateRip Summary
    Disc not found in AccurateRip DB.
All Tracks
    Album gain               : -9.05 dB
    Peak                     : 1.000000
    Statistics
        Read error                           : 0
        Jitter error (maybe fixed)           : 0
        Retry sector count                   : 0
        Damaged sector count                 : 0
Track 01
    Filename : /Users/Dagwood/Desktop/Temp/Elvis Costello and The Roots Wise Up Ghost (Unknown Year) [FLAC]/01 Walk Us Uptown.flac
    Pre-gap length : 00:02:00
    Track gain               : -9.42 dB
    Peak                     : 0.988525
    CRC32 hash (test run)    : 53C82977
    CRC32 hash               : 53C82977
    CRC32 hash (skip zero)   : 4002443A
    AccurateRip v1 signature : 853D712D
    AccurateRip v2 signature : 210DD44F
        ->Track not present in AccurateRip database.
    Statistics
        Read error                           : 0
        Jitter error (maybe fixed)           : 0
        Retry sector count                   : 0
        Damaged sector count                 : 0
Track 02
    Filename : /Users/Dagwood/Desktop/Temp/Elvis Costello and The Roots Wise Up Ghost (Unknown Year) [FLAC]/02 Sugar Won't Work.flac
    Track gain               : -7.39 dB
    Peak                     : 1.000000
    CRC32 hash (test run)    : 36D2B6AE
    CRC32 hash               : 36D2B6AE
    CRC32 hash (skip zero)   : 80C0445C
    AccurateRip v1 signature : 2773745D
    AccurateRip v2 signature : C1CEB99B
        ->Track not present in AccurateRip database.
    Statistics
        Read error                           : 0
        Jitter error (maybe fixed)           : 0
        Retry sector count                   : 0
        Damaged sector count                 : 0
Track 03
    Filename : /Users/Dagwood/Desktop/Temp/Elvis Costello and The Roots Wise Up Ghost (Unknown Year) [FLAC]/03 Refuse to Be Saved.flac
    Track gain               : -10.58 dB
    Peak                     : 1.000000
    CRC32 hash (test run)    : 450D9616
    CRC32 hash               : 450D9616
    CRC32 hash (skip zero)   : 9C99E8FD
    AccurateRip v1 signature : 8BCBF8E8
    AccurateRip v2 signature : 7D39B92A
        ->Track not present in AccurateRip database.
    Statistics
        Read error                           : 0
        Jitter error (maybe fixed)           : 0
        Retry sector count                   : 0
        Damaged sector count                 : 0
Track 04
    Filename : /Users/Dagwood/Desktop/Temp/Elvis Costello and The Roots Wise Up Ghost (Unknown Year) [FLAC]/04 Wake Me Up.flac
    Track gain               : -8.88 dB
    Peak                     : 1.000000
    CRC32 hash (test run)    : BABA5C64
    CRC32 hash               : BABA5C64
    CRC32 hash (skip zero)   : 6A5E1790
    AccurateRip v1 signature : 7C610DC4
    AccurateRip v2 signature : CC3B0C43
        ->Track not present in AccurateRip database.
    Statistics
        Read error                           : 0
        Jitter error (maybe fixed)           : 0
        Retry sector count                   : 0
        Damaged sector count                 : 0
Track 05
    Filename : /Users/Dagwood/Desktop/Temp/Elvis Costello and The Roots Wise Up Ghost (Unknown Year) [FLAC]/05 Tripwire.flac
    Track gain               : -6.69 dB
    Peak                     : 1.000000
    CRC32 hash (test run)    : 146796EA
    CRC32 hash               : 146796EA
    CRC32 hash (skip zero)   : F9D80EE4
    AccurateRip v1 signature : 6043BC05
    AccurateRip v2 signature : EB761C36
        ->Track not present in AccurateRip database.
    Statistics
        Read error                           : 0
        Jitter error (maybe fixed)           : 0
        Retry sector count                   : 0
        Damaged sector count                 : 0
Track 06
    Filename : /Users/Dagwood/Desktop/Temp/Elvis Costello and The Roots Wise Up Ghost (Unknown Year) [FLAC]/06 Stick Out Your Tongue.flac
    Track gain               : -10.25 dB
    Peak                     : 1.000000
    CRC32 hash (test run)    : 2FA5ACF7
    CRC32 hash               : 2FA5ACF7
    CRC32 hash (skip zero)   : EBD74BD0
    AccurateRip v1 signature : AF7B7F7D
    AccurateRip v2 signature : 821EC485
        ->Track not present in AccurateRip database.
    Statistics
        Read error                           : 0
        Jitter error (maybe fixed)           : 0
        Retry sector count                   : 0
        Damaged sector count                 : 0
Track 07
    Filename : /Users/Dagwood/Desktop/Temp/Elvis Costello and The Roots Wise Up Ghost (Unknown Year) [FLAC]/07 Come the Meantimes.flac
    Track gain               : -9.83 dB
    Peak                     : 1.000000
    CRC32 hash (test run)    : 8D4836E9
    CRC32 hash               : 8D4836E9
    CRC32 hash (skip zero)   : 421DC726
    AccurateRip v1 signature : CDA2DE1D
    AccurateRip v2 signature : 6CF2C49D
        ->Track not present in AccurateRip database.
    Statistics
        Read error                           : 0
        Jitter error (maybe fixed)           : 0
        Retry sector count                   : 0
        Damaged sector count                 : 0
Track 08
    Filename : /Users/Dagwood/Desktop/Temp/Elvis Costello and The Roots Wise Up Ghost (Unknown Year) [FLAC]/08 (She Might Be a) Grenade.flac
    Track gain               : -8.83 dB
    Peak                     : 1.000000
    CRC32 hash (test run)    : C757F7B1
    CRC32 hash               : C757F7B1
    CRC32 hash (skip zero)   : C4291CB8
    AccurateRip v1 signature : 95889D34
    AccurateRip v2 signature : 9C445837
        ->Track not present in AccurateRip database.
    Statistics
        Read error                           : 0
        Jitter error (maybe fixed)           : 0
        Retry sector count                   : 0
        Damaged sector count                 : 0
Track 09
    Filename : /Users/Dagwood/Desktop/Temp/Elvis Costello and The Roots Wise Up Ghost (Unknown Year) [FLAC]/09 Cinco minutos con vos (with La Marisoul).flac
    Track gain               : -6.08 dB
    Peak                     : 1.000000
    CRC32 hash (test run)    : D33B42FE
    CRC32 hash               : D33B42FE
    CRC32 hash (skip zero)   : 27A3CC18
    AccurateRip v1 signature : B527EEA1
    AccurateRip v2 signature : BA0C6CDA
        ->Track not present in AccurateRip database.
    Statistics
        Read error                           : 0
        Jitter error (maybe fixed)           : 0
        Retry sector count                   : 0
        Damaged sector count                 : 0
Track 10
    Filename : /Users/Dagwood/Desktop/Temp/Elvis Costello and The Roots Wise Up Ghost (Unknown Year) [FLAC]/10 Viceroy's Row.flac
    Pre-gap length : 00:00:51
    Track gain               : -9.04 dB
    Peak                     : 1.000000
    CRC32 hash (test run)    : 8B020E75
    CRC32 hash               : 8B020E75
    CRC32 hash (skip zero)   : 01BB1522
    AccurateRip v1 signature : 51268716
    AccurateRip v2 signature : 9460E55D
        ->Track not present in AccurateRip database.
    Statistics
        Read error                           : 0
        Jitter error (maybe fixed)           : 0
        Retry sector count                   : 0
        Damaged sector count                 : 0
Track 11
    Filename : /Users/Dagwood/Desktop/Temp/Elvis Costello and The Roots Wise Up Ghost (Unknown Year) [FLAC]/11 Wise Up Ghost.flac
    Track gain               : -8.27 dB
    Peak                     : 1.000000
    CRC32 hash (test run)    : FB535690
    CRC32 hash               : FB535690
    CRC32 hash (skip zero)   : B35AFD06
    AccurateRip v1 signature : 9BA8BDB5
    AccurateRip v2 signature : C3B0CBC0
        ->Track not present in AccurateRip database.
    Statistics
        Read error                           : 0
        Jitter error (maybe fixed)           : 0
        Retry sector count                   : 0
        Damaged sector count                 : 0
Track 12
    Filename : /Users/Dagwood/Desktop/Temp/Elvis Costello and The Roots Wise Up Ghost (Unknown Year) [FLAC]/12 If I Could Believe.flac
    Track gain               : -4.34 dB
    Peak                     : 1.000000
    CRC32 hash (test run)    : 46FA2433
    CRC32 hash               : 46FA2433
    CRC32 hash (skip zero)   : 6C08D66E
    AccurateRip v1 signature : 60DFF148
    AccurateRip v2 signature : F00A5F0D
        ->Track not present in AccurateRip database.
    Statistics
        Read error                           : 0
        Jitter error (maybe fixed)           : 0
        Retry sector count                   : 0
        Damaged sector count                 : 0
Track 13
    Filename : /Users/Dagwood/Desktop/Temp/Elvis Costello and The Roots Wise Up Ghost (Unknown Year) [FLAC]/13 My New Haunt.flac
    Track gain               : -10.52 dB
    Peak                     : 1.000000
    CRC32 hash (test run)    : 1D4888AD
    CRC32 hash               : 1D4888AD
    CRC32 hash (skip zero)   : FC7EEDF0
    AccurateRip v1 signature : 029EC62A
    AccurateRip v2 signature : 4DB11255
        ->Track not present in AccurateRip database.
    Statistics
        Read error                           : 0
        Jitter error (maybe fixed)           : 0
        Retry sector count                   : 0
        Damaged sector count                 : 0
Track 14
    Filename : /Users/Dagwood/Desktop/Temp/Elvis Costello and The Roots Wise Up Ghost (Unknown Year) [FLAC]/14 Can You Hear Me?.flac
    Track gain               : -9.15 dB
    Peak                     : 1.000000
    CRC32 hash (test run)    : DB450B97
    CRC32 hash               : DB450B97
    CRC32 hash (skip zero)   : 44AC8B81
    AccurateRip v1 signature : 20AD4750
    AccurateRip v2 signature : C492D434
        ->Track not present in AccurateRip database.
    Statistics
        Read error                           : 0
        Jitter error (maybe fixed)           : 0
        Retry sector count                   : 0
        Damaged sector count                 : 0
Track 15
    Filename : /Users/Dagwood/Desktop/Temp/Elvis Costello and The Roots Wise Up Ghost (Unknown Year) [FLAC]/15 The Puppet Has Cut His Strings.flac
    Pre-gap length : 00:02:61
    Track gain               : -7.94 dB
    Peak                     : 1.000000
    CRC32 hash (test run)    : AC5E883A
    CRC32 hash               : AC5E883A
    CRC32 hash (skip zero)   : B377A88C
    AccurateRip v1 signature : A160BFCF
    AccurateRip v2 signature : B6DC6CBD
        ->Track not present in AccurateRip database.
    Statistics
        Read error                           : 0
        Jitter error (maybe fixed)           : 0
        Retry sector count                   : 0
        Damaged sector count                 : 0
No errors occurred
End of status report
Код:
TITLE "Wise Up Ghost"
PERFORMER "Elvis Costello & The Roots"
CATALOG 0602537443154
REM DISCID B610EA0F
REM REPLAYGAIN_ALBUM_GAIN -9.05 dB
REM REPLAYGAIN_ALBUM_PEAK 1.000000
FILE "01. Walk Us Uptown.flac" WAVE
  TRACK 01 AUDIO
    TITLE "Walk Us Uptown"
    PERFORMER "Elvis Costello and The Roots"
    ISRC USUM71308385
    FLAGS DCP
    REM REPLAYGAIN_TRACK_GAIN -9.42 dB
    REM REPLAYGAIN_TRACK_PEAK 0.988525
    INDEX 01 00:00:00
FILE "02. Sugar Won't Work.flac" WAVE
  TRACK 02 AUDIO
    TITLE "Sugar Won't Work"
    PERFORMER "Elvis Costello and The Roots"
    ISRC USUM71308753
    FLAGS DCP
    REM REPLAYGAIN_TRACK_GAIN -7.39 dB
    REM REPLAYGAIN_TRACK_PEAK 1.000000
    INDEX 01 00:00:00
FILE "03. Refuse to Be Saved.flac" WAVE
  TRACK 03 AUDIO
    TITLE "Refuse to Be Saved"
    PERFORMER "Elvis Costello and The Roots"
    ISRC USUM71308788
    FLAGS DCP
    REM REPLAYGAIN_TRACK_GAIN -10.58 dB
    REM REPLAYGAIN_TRACK_PEAK 1.000000
    INDEX 01 00:00:00
FILE "04. Wake Me Up.flac" WAVE
  TRACK 04 AUDIO
    TITLE "Wake Me Up"
    PERFORMER "Elvis Costello and The Roots"
    ISRC USUM71308792
    FLAGS DCP
    REM REPLAYGAIN_TRACK_GAIN -8.88 dB
    REM REPLAYGAIN_TRACK_PEAK 1.000000
    INDEX 01 00:00:00
FILE "05. Tripwire.flac" WAVE
  TRACK 05 AUDIO
    TITLE "Tripwire"
    PERFORMER "Elvis Costello and The Roots"
    ISRC USUM71308793
    FLAGS DCP
    REM REPLAYGAIN_TRACK_GAIN -6.69 dB
    REM REPLAYGAIN_TRACK_PEAK 1.000000
    INDEX 01 00:00:00
FILE "06. Stick Out Your Tongue.flac" WAVE
  TRACK 06 AUDIO
    TITLE "Stick Out Your Tongue"
    PERFORMER "Elvis Costello and The Roots"
    ISRC USUM71308794
    FLAGS DCP
    REM REPLAYGAIN_TRACK_GAIN -10.25 dB
    REM REPLAYGAIN_TRACK_PEAK 1.000000
    INDEX 01 00:00:00
FILE "07. Come the Meantimes.flac" WAVE
  TRACK 07 AUDIO
    TITLE "Come the Meantimes"
    PERFORMER "Elvis Costello and The Roots"
    ISRC USUM71308795
    FLAGS DCP
    REM REPLAYGAIN_TRACK_GAIN -9.83 dB
    REM REPLAYGAIN_TRACK_PEAK 1.000000
    INDEX 01 00:00:00
FILE "08. (She Might Be a) Grenade.flac" WAVE
  TRACK 08 AUDIO
    TITLE "(She Might Be a) Grenade"
    PERFORMER "Elvis Costello and The Roots"
    ISRC USUM71308791
    FLAGS DCP
    REM REPLAYGAIN_TRACK_GAIN -8.83 dB
    REM REPLAYGAIN_TRACK_PEAK 1.000000
    INDEX 01 00:00:00
FILE "09. Cinco minutos con vos (with La Marisoul).flac" WAVE
  TRACK 09 AUDIO
    TITLE "Cinco minutos con vos (with La Marisoul)"
    PERFORMER "Elvis Costello and The Roots"
    ISRC USUM71308790
    FLAGS DCP
    REM REPLAYGAIN_TRACK_GAIN -6.08 dB
    REM REPLAYGAIN_TRACK_PEAK 1.000000
    INDEX 01 00:00:00
  TRACK 10 AUDIO
    TITLE "Viceroy's Row"
    PERFORMER "Elvis Costello and The Roots"
    ISRC USUM71308796
    FLAGS DCP
    REM REPLAYGAIN_TRACK_GAIN -9.04 dB
    REM REPLAYGAIN_TRACK_PEAK 1.000000
    INDEX 00 05:00:44
FILE "10. Viceroy's Row.flac" WAVE
    INDEX 01 00:00:00
FILE "11. Wise Up Ghost.flac" WAVE
  TRACK 11 AUDIO
    TITLE "Wise Up Ghost"
    PERFORMER "Elvis Costello and The Roots"
    ISRC USUM71308799
    FLAGS DCP
    REM REPLAYGAIN_TRACK_GAIN -8.27 dB
    REM REPLAYGAIN_TRACK_PEAK 1.000000
    INDEX 01 00:00:00
FILE "12. If I Could Believe.flac" WAVE
  TRACK 12 AUDIO
    TITLE "If I Could Believe"
    PERFORMER "Elvis Costello and The Roots"
    ISRC USUM71308789
    FLAGS DCP
    REM REPLAYGAIN_TRACK_GAIN -4.34 dB
    REM REPLAYGAIN_TRACK_PEAK 1.000000
    INDEX 01 00:00:00
FILE "13. My New Haunt.flac" WAVE
  TRACK 13 AUDIO
    TITLE "My New Haunt"
    PERFORMER "Elvis Costello and The Roots"
    ISRC USUM71308800
    FLAGS DCP
    REM REPLAYGAIN_TRACK_GAIN -10.52 dB
    REM REPLAYGAIN_TRACK_PEAK 1.000000
    INDEX 01 00:00:00
FILE "14. Can You Hear Me?.flac" WAVE
  TRACK 14 AUDIO
    TITLE "Can You Hear Me?"
    PERFORMER "Elvis Costello and The Roots"
    ISRC USUM71308797
    FLAGS DCP
    REM REPLAYGAIN_TRACK_GAIN -9.15 dB
    REM REPLAYGAIN_TRACK_PEAK 1.000000
    INDEX 01 00:00:00
  TRACK 15 AUDIO
    TITLE "The Puppet Has Cut His Strings"
    PERFORMER "Elvis Costello and The Roots"
    ISRC USUM71308798
    FLAGS DCP
    REM REPLAYGAIN_TRACK_GAIN -7.94 dB
    REM REPLAYGAIN_TRACK_PEAK 1.000000
    INDEX 00 06:24:20
FILE "15. The Puppet Has Cut His Strings.flac" WAVE
    INDEX 01 00:00:00
Правила, инструкции, FAQ!!!
Торрент  Добавлен [26 мар 2019, 20:59] Скачать торрент Магнет ссылка
Скачать торрент
[ Размер 17.97 КБ / Просмотров 5 ]

Статус
Проверен 
 
Размер  421.23 МБ
Приватный: Нет (DHT включён)
.torrent скачан  0
 


     Отправить личное сообщение
   
Страница 1 из 1
Показать сообщения за:  Поле сортировки  
Начать новую тему Ответить на тему


Сейчас этот форум просматривают: нет зарегистрированных пользователей и гости: 0


Вы не можете начинать темы
Вы не можете отвечать на сообщения
Вы не можете редактировать свои сообщения
Вы не можете удалять свои сообщения
Вы не можете добавлять вложения

Перейти:  
cron