Начать новую тему Ответить на тему
Статистика раздачи
Размер: 301.37 МБ | Добавлен: 26 мар 2019, 20:25 | Скачали: 0
Сидеров: 0  [0 байт/сек]    Личеров: 0  [0 байт/сек]
Пред. тема | След. тема 

Автор
Сообщение

СообщениеДобавлено: 26 мар 2019, 20:25 

Ответить с цитатой 

Elvis Costello and The Attractions / All This Useless Beauty
Жанр: Pop-Rock & Soft Rock
Год издания диска: 1996
Издатель (лейбл): Warner Bros.
Номер по каталогу: 46198
Страна: Англия
Аудио кодек: FLAC (*.flac)
Тип рипа: tracks+.cue
Битрейт аудио: lossless
Источник (релизер): CD
Наличие сканов в содержимом раздачи: нет
Треклист:
01 - The Other End Of The Telescope [4:07]
02 - Little Atoms [3:58]
03 - All This Useless Beauty [4:40]
04 - Complicated Shadows [4:44]
05 - Why Can't A Man Stand Alone? [3:15]
06 - Distorted Angel [4:31]
07 - Shallow Grave [2:07]
08 - Poor Fractured Atlas [4:03]
09 - Starting To Come To Me [2:44]
10 - You Bowed Down [4:56]
11 - It's Time [6:00]
12 - I Want To Vanish [3:14]
Код:
Exact Audio Copy V1.0 beta 1 from 15. November 2010
EAC extraction logfile from 15. April 2011, 12:27
Elvis Costello and The Attractions / All This Useless Beauty
Used drive  : ASUS    DRW-22B2L   Adapter: 3  ID: 0
Read mode               : Secure
Utilize accurate stream : Yes
Defeat audio cache      : Yes
Make use of C2 pointers : No
Read offset correction                      : 6
Overread into Lead-In and Lead-Out          : No
Fill up missing offset samples with silence : Yes
Delete leading and trailing silent blocks   : No
Null samples used in CRC calculations       : Yes
Used interface                              : Native Win32 interface for Win NT & 2000
Gap handling                                : Appended to previous track
Used output format              : User Defined Encoder
Selected bitrate                : 128 kBit/s
Quality                         : High
Add ID3 tag                     : No
Command line compressor         : E:\Програмы\Музыка - Видео\Exact Audio Copy 1.0 beta 1\Flac\flac.exe
Additional command line options : -8 -V -T "ARTIST=%a" -T "TITLE=%t" -T "ALBUM=%g" -T "DATE=%y" -T "TRACKNUMBER=%n" -T "GENRE=%m" -T "COMMENT=EAC FLAC -8" %s
TOC of the extracted CD
     Track |   Start  |  Length  | Start sector | End sector
    ---------------------------------------------------------
        1  |  0:00.32 |  4:06.20 |        32    |    18501
        2  |  4:06.52 |  3:58.05 |     18502    |    36356
        3  |  8:04.57 |  4:39.43 |     36357    |    57324
        4  | 12:44.25 |  4:43.47 |     57325    |    78596
        5  | 17:27.72 |  3:14.50 |     78597    |    93196
        6  | 20:42.47 |  4:31.23 |     93197    |   113544
        7  | 25:13.70 |  2:07.05 |    113545    |   123074
        8  | 27:21.00 |  4:02.52 |    123075    |   141276
        9  | 31:23.52 |  2:43.50 |    141277    |   153551
       10  | 34:07.27 |  4:55.53 |    153552    |   175729
       11  | 39:03.05 |  6:00.25 |    175730    |   202754
       12  | 45:03.30 |  3:16.02 |    202755    |   217456
Track  1
     Filename E:\01. The Other End Of The Telescope.wav
     Pre-gap length  0:00:02.42
     Peak level 100.0 %
     Extraction speed 2.7 X
     Track quality 100.0 %
     Test CRC A40BFD66
     Copy CRC A40BFD66
     Accurately ripped (confidence 4)  [130540BF]
     Copy OK
Track  2
     Filename E:\02. Little Atoms.wav
     Pre-gap length  0:00:00.04
     Peak level 97.7 %
     Extraction speed 3.4 X
     Track quality 99.9 %
     Test CRC 48552112
     Copy CRC 48552112
     Accurately ripped (confidence 4)  [6062DA83]
     Copy OK
Track  3
     Filename E:\03. All This Useless Beauty.wav
     Pre-gap length  0:00:01.60
     Peak level 97.7 %
     Extraction speed 3.8 X
     Track quality 99.9 %
     Test CRC EE8110D1
     Copy CRC EE8110D1
     Accurately ripped (confidence 4)  [15A88021]
     Copy OK
Track  4
     Filename E:\04. Complicated Shadows.wav
     Pre-gap length  0:00:01.64
     Peak level 99.9 %
     Extraction speed 5.0 X
     Track quality 100.0 %
     Test CRC 6078E914
     Copy CRC 6078E914
     Accurately ripped (confidence 4)  [68307C55]
     Copy OK
Track  5
     Filename E:\05. Why Can't A Man Stand Alone.wav
     Pre-gap length  0:00:00.04
     Peak level 97.7 %
     Extraction speed 5.1 X
     Track quality 100.0 %
     Test CRC 5BF73DCE
     Copy CRC 5BF73DCE
     Accurately ripped (confidence 4)  [90C42523]
     Copy OK
Track  6
     Filename E:\06. Distorted Angel.wav
     Pre-gap length  0:00:00.04
     Peak level 97.7 %
     Extraction speed 4.6 X
     Track quality 99.9 %
     Test CRC 945411AF
     Copy CRC 945411AF
     Accurately ripped (confidence 4)  [90DE7687]
     Copy OK
Track  7
     Filename E:\07. Shallow Grave.wav
     Pre-gap length  0:00:00.04
     Peak level 97.7 %
     Extraction speed 5.0 X
     Track quality 100.0 %
     Test CRC A17DDC02
     Copy CRC A17DDC02
     Accurately ripped (confidence 4)  [2E6492B9]
     Copy OK
Track  8
     Filename E:\08. Poor Fractured Atlas.wav
     Pre-gap length  0:00:05.74
     Peak level 100.0 %
     Extraction speed 5.9 X
     Track quality 100.0 %
     Test CRC AB4E59E8
     Copy CRC AB4E59E8
     Accurately ripped (confidence 4)  [C02504F9]
     Copy OK
Track  9
     Filename E:\09. Starting To Come To Me.wav
     Pre-gap length  0:00:03.93
     Peak level 91.8 %
     Extraction speed 5.7 X
     Track quality 100.0 %
     Test CRC 43D46622
     Copy CRC 43D46622
     Accurately ripped (confidence 4)  [7F8276F9]
     Copy OK
Track 10
     Filename E:\10. You Bowed Down.wav
     Pre-gap length  0:00:00.04
     Peak level 97.7 %
     Extraction speed 6.5 X
     Track quality 100.0 %
     Test CRC BE347E92
     Copy CRC BE347E92
     Accurately ripped (confidence 4)  [3EB59A00]
     Copy OK
Track 11
     Filename E:\11. It's Time.wav
     Pre-gap length  0:00:01.57
     Peak level 97.7 %
     Extraction speed 6.9 X
     Track quality 100.0 %
     Test CRC F745EC75
     Copy CRC F745EC75
     Accurately ripped (confidence 4)  [DA89E8E8]
     Copy OK
Track 12
     Filename E:\12. I Want To Vanish.wav
     Pre-gap length  0:00:02.37
     Peak level 99.5 %
     Extraction speed 6.5 X
     Track quality 100.0 %
     Test CRC 71639BF2
     Copy CRC 71639BF2
     Accurately ripped (confidence 4)  [3294F557]
     Copy OK
All tracks accurately ripped
No errors occurred
End of status report
==== Log checksum 454D66E815AAA28F7A92403FE2BC170E4B6ED26B196F4F92CA48EF8E81967143 ====
Код:
REM GENRE Rock
REM DATE 1996
REM DISCID A90B530C
REM COMMENT "ExactAudioCopy v1.0b1"
PERFORMER "Elvis Costello and The Attractions"
TITLE "All This Useless Beauty"
FILE "01. The Other End Of The Telescope.wav" WAVE
  TRACK 01 AUDIO
    TITLE "The Other End Of The Telescope"
    PERFORMER "Elvis Costello and The Attractions"
    PREGAP 00:00:32
    INDEX 01 00:00:00
  TRACK 02 AUDIO
    TITLE "Little Atoms"
    PERFORMER "Elvis Costello and The Attractions"
    INDEX 00 04:06:17
FILE "02. Little Atoms.wav" WAVE
    INDEX 01 00:00:00
  TRACK 03 AUDIO
    TITLE "All This Useless Beauty"
    PERFORMER "Elvis Costello and The Attractions"
    INDEX 00 03:56:35
FILE "03. All This Useless Beauty.wav" WAVE
    INDEX 01 00:00:00
  TRACK 04 AUDIO
    TITLE "Complicated Shadows"
    PERFORMER "Elvis Costello and The Attractions"
    INDEX 00 04:37:70
FILE "04. Complicated Shadows.wav" WAVE
    INDEX 01 00:00:00
  TRACK 05 AUDIO
    TITLE "Why Can't A Man Stand Alone?"
    PERFORMER "Elvis Costello and The Attractions"
    INDEX 00 04:43:44
FILE "05. Why Can't A Man Stand Alone.wav" WAVE
    INDEX 01 00:00:00
  TRACK 06 AUDIO
    TITLE "Distorted Angel"
    PERFORMER "Elvis Costello and The Attractions"
    INDEX 00 03:14:47
FILE "06. Distorted Angel.wav" WAVE
    INDEX 01 00:00:00
  TRACK 07 AUDIO
    TITLE "Shallow Grave"
    PERFORMER "Elvis Costello and The Attractions"
    INDEX 00 04:31:20
FILE "07. Shallow Grave.wav" WAVE
    INDEX 01 00:00:00
  TRACK 08 AUDIO
    TITLE "Poor Fractured Atlas"
    PERFORMER "Elvis Costello and The Attractions"
    INDEX 00 02:01:24
FILE "08. Poor Fractured Atlas.wav" WAVE
    INDEX 01 00:00:00
  TRACK 09 AUDIO
    TITLE "Starting To Come To Me"
    PERFORMER "Elvis Costello and The Attractions"
    INDEX 00 03:58:57
FILE "09. Starting To Come To Me.wav" WAVE
    INDEX 01 00:00:00
  TRACK 10 AUDIO
    TITLE "You Bowed Down"
    PERFORMER "Elvis Costello and The Attractions"
    INDEX 00 02:43:47
FILE "10. You Bowed Down.wav" WAVE
    INDEX 01 00:00:00
  TRACK 11 AUDIO
    TITLE "It's Time"
    PERFORMER "Elvis Costello and The Attractions"
    INDEX 00 04:54:10
FILE "11. It's Time.wav" WAVE
    INDEX 01 00:00:00
  TRACK 12 AUDIO
    TITLE "I Want To Vanish"
    PERFORMER "Elvis Costello and The Attractions"
    INDEX 00 05:57:72
FILE "12. I Want To Vanish.wav" WAVE
    INDEX 01 00:00:00
Правила, инструкции, FAQ!!!
Торрент  Добавлен [26 мар 2019, 20:25] Скачать торрент Магнет ссылка
Скачать торрент
[ Размер 14.22 КБ / Просмотров 4 ]

Статус
Проверен 
 
Размер  301.37 МБ
Приватный: Нет (DHT включён)
.torrent скачан  0
 


     Отправить личное сообщение
   
Страница 1 из 1
Показать сообщения за:  Поле сортировки  
Начать новую тему Ответить на тему


Сейчас этот форум просматривают: нет зарегистрированных пользователей и гости: 0


Вы не можете начинать темы
Вы не можете отвечать на сообщения
Вы не можете редактировать свои сообщения
Вы не можете удалять свои сообщения
Вы не можете добавлять вложения

Перейти:  
cron