Начать новую тему Ответить на тему
Статистика раздачи
Размер: 290.13 МБ | Добавлен: 26 мар 2019, 19:53 | Скачали: 0
Сидеров: 0  [0 байт/сек]    Личеров: 1  [0 байт/сек]
Пред. тема | След. тема 

Автор
Сообщение

СообщениеДобавлено: 26 мар 2019, 19:53 

Ответить с цитатой 

David Gray - Draw the Line
Жанр: Pop-Rock/Soft Rock
Год выпуска диска: 2009
Производитель диска: © Universal Music Russia, 2009; license by Polydor
Аудио кодек: FLAC
Тип рипа: image+.cue+cover
Битрейт аудио: lossless
Продолжительность: Total Time: 46:54
Трэклист:
01. [3:43] Fugitive
02. [4:23] Draw the Line
03. [5:26] Nemesis
04. [3:54] Jackdaw
05. [3:49] Kathleen
06. [5:59] First Chance
07. [3:51] Harder
08. [3:22] Transformation
09. [3;37] Stella the Artist
10. [4:38] Breathe
11. [4:12] Full Steam Ahead
#777Новый студийный альбом талантливого английского музыканта, дважды номинанта на Brit Awards и Grammy. Дэвид Грей не относится к тем личностям, кто стал бы почивать на лаврах прошлых успехов. Более 12 миллионов проданных дисков,
наиболее раскупаемый когда-либо альбом в Ирландии (“White Ladder”), многочисленные номинации на музыкальные премии
дают Дэвиду мощный стимул для творчества. Теплый, свежий, органический звук нового альбома высвечивает новые
грани в творчестве артиста.В “Fugitive” узнаваемый голос Дэвида дополнен пением госпел-хора. Отдельно стоит упомянуть
о дуэте с американской исполнительницей собственных песен Jolie Holland в “Kathleen”, а завершает альбом “Full Steam
Ahead”
– дуэт с Annie Lennox.

Exact Audio Copy V0.99 prebeta 4 from 23. January 2008
EAC extraction logfile from 25. September 2009, 15:46
David GRAY / Draw The Line
Used drive : ASUS DRW-2014S1T Adapter: 3 ID: 0
Read mode : Secure
Utilize accurate stream : Yes
Defeat audio cache : Yes
Make use of C2 pointers : No
Read offset correction : 6
Overread into Lead-In and Lead-Out : No
Fill up missing offset samples with silence : Yes
Delete leading and trailing silent blocks : No
Null samples used in CRC calculations : Yes
Used interface : Installed external ASPI interface
Used output format : Internal WAV Routines
Sample format : 44.100 Hz; 16 Bit; Stereo
TOC of the extracted CD
Track | Start | Length | Start sector | End sector
---------------------------------------------------------
1 | 0:00.00 | 3:43.39 | 0 | 16763
2 | 3:43.39 | 4:23.26 | 16764 | 36514
3 | 8:06.65 | 5:26.52 | 36515 | 61016
4 | 13:33.42 | 3:54.72 | 61017 | 78638
5 | 17:28.39 | 3:49.56 | 78639 | 95869
6 | 21:18.20 | 5:59.46 | 95870 | 122840
7 | 27:17.66 | 3:51.60 | 122841 | 140225
8 | 31:09.51 | 3:22.73 | 140226 | 155448
9 | 34:32.49 | 3:37.29 | 155449 | 171752
10 | 38:10.03 | 4:38.53 | 171753 | 192655
11 | 42:48.56 | 4:12.19 | 192656 | 211574
Range status and errors
Selected range
Filename D:\Downloads\TRAK\David Gray\Draw The Line\David GRAY - Draw The Line.wav
Peak level 100.0 %
Range quality 100.0 %
Copy CRC AAEF71CE
Copy OK
No errors occurred
AccurateRip summary
Track 1 not present in database
Track 2 not present in database
Track 3 not present in database
Track 4 not present in database
Track 5 not present in database
Track 6 not present in database
Track 7 not present in database
Track 8 not present in database
Track 9 not present in database
Track 10 not present in database
Track 11 not present in database
None of the tracks are present in the AccurateRip database
End of status report
REM GENRE "Pop-Rock / Folk-Rock"
REM DATE 2009
REM DISCID 8C0B050B
REM COMMENT "ExactAudioCopy v0.99pb4"
PERFORMER "David GRAY"
TITLE "Draw The Line"
FILE "David GRAY - Draw The Line.wav" WAVE
TRACK 01 AUDIO
TITLE "Fugitive"
PERFORMER "David GRAY"
INDEX 01 00:00:00
TRACK 02 AUDIO
TITLE "Draw the Line"
PERFORMER "David GRAY"
INDEX 01 03:43:39
TRACK 03 AUDIO
TITLE "Nemesis"
PERFORMER "David GRAY"
INDEX 01 08:06:65
TRACK 04 AUDIO
TITLE "Jackdaw"
PERFORMER "David GRAY"
INDEX 00 13:31:64
INDEX 01 13:33:42
TRACK 05 AUDIO
TITLE "Kathleen"
PERFORMER "David GRAY"
INDEX 01 17:28:39
TRACK 06 AUDIO
TITLE "First Chance"
PERFORMER "David GRAY"
INDEX 01 21:18:20
INDEX 02 27:17:66
TRACK 07 AUDIO
TITLE "Harder"
PERFORMER "David GRAY"
INDEX 01 27:17:66
TRACK 08 AUDIO
TITLE "Transformation"
PERFORMER "David GRAY"
INDEX 01 31:09:51
TRACK 09 AUDIO
TITLE "Stella the Artist"
PERFORMER "David GRAY"
INDEX 01 34:32:49
TRACK 10 AUDIO
TITLE "Breathe"
PERFORMER "David GRAY"
INDEX 01 38:10:03
TRACK 11 AUDIO
TITLE "Full Steam Ahead"
PERFORMER "David GRAY"
INDEX 01 42:48:56

Не забудьте сказать «Спасибо»
Правила, инструкции, FAQ!!!
Торрент  Добавлен [26 мар 2019, 19:53] Скачать торрент Магнет ссылка
Скачать торрент
[ Размер 12.27 КБ / Просмотров 9 ]

Статус
Проверен 
 
Размер  290.13 МБ
Приватный: Нет (DHT включён)
.torrent скачан  0
 


     Отправить личное сообщение
   
Страница 1 из 1
Показать сообщения за:  Поле сортировки  
Начать новую тему Ответить на тему


Сейчас этот форум просматривают: нет зарегистрированных пользователей и гости: 0


Вы не можете начинать темы
Вы не можете отвечать на сообщения
Вы не можете редактировать свои сообщения
Вы не можете удалять свои сообщения
Вы не можете добавлять вложения

Перейти:  
cron