Начать новую тему Ответить на тему
Статистика раздачи
Размер: 181.72 МБ | Добавлен: 26 мар 2019, 21:04 | Скачали: 1
Сидеров: 0  [0 байт/сек]    Личеров: 0  [0 байт/сек]
Пред. тема | След. тема 

Автор
Сообщение

СообщениеДобавлено: 26 мар 2019, 21:04 

Ответить с цитатой 

David Gates - Never Let Her Go
Жанр: Pop-Rock & Soft Rock
Год выпуска диска: 1975, (2008 - Remastered)
Производитель диска: USA
Аудио кодек: APE
Тип рипа: image+.cue
Битрейт аудио: lossless
Продолжительность: 00:27:11
Трэклист:

1. Never Let Her Go
2. Angel
3. Playin' On My Guitar
4. Watch Out
5. Part Time Love
6. Chain Me
7. Light Of My Life
8. Someday
9. Greener Days
10. Strangers

Exact Audio Copy V0.99 prebeta 4 from 23. January 2008
Отчёт EAC об извлечении, выполненном 19. июля 2009, 19:00
David Gates / Never Let Her Go
Дисковод: PLEXTOR DVDR PX-800A Adapter: 0 ID: 0
Режим чтения : Достоверность
Использование точного потока : Да
Отключение кэша аудио : Да
Использование указателей C2 : Нет
Коррекция смещения при чтении : 48
Способность читать области Lead-in и Lead-out : Нет
Заполнение пропущенных сэмплов тишиной : Да
Удаление блоков с тишиной в начале и конце : Нет
При вычислениях CRC использовались нулевые сэмплы : Да
Интерфейс : Установленный внешний ASPI-интерфейс
Выходной формат : Внутренние WAV-операции
Формат сэмплов : 44.100 Гц; 16 бит; стерео
TOC извлечённого CD
Трек | Старт | Длительность | Начальный сектор | Конечный сектор
---------------------------------------------------------------------
1 | 0:00.00 | 3:08.61 | 0 | 14160
2 | 3:08.61 | 2:31.23 | 14161 | 25508
3 | 5:40.09 | 2:48.69 | 25509 | 38177
4 | 8:29.03 | 2:07.45 | 38178 | 47747
5 | 10:36.48 | 2:26.44 | 47748 | 58741
6 | 13:03.17 | 2:00.01 | 58742 | 67742
7 | 15:03.18 | 2:19.65 | 67743 | 78232
8 | 17:23.08 | 2:04.39 | 78233 | 87571
9 | 19:27.47 | 3:39.11 | 87572 | 104007
10 | 23:06.58 | 4:04.25 | 104008 | 122332
Характеристики диапазона извлечения и сообщения об ошибках
Выбранный диапазон
Имя файла D:\Lossless\David Gates - Never Let Her Go\David Gates - Never Let Her Go.wav
Пиковый уровень 94.6 %
Качество диапазона 99.9 %
CRC копии E9318CE7
Копирование... OK
Ошибок не произошло
Конец отчёта
Рип с фирменного диска
Правила, инструкции, FAQ!!!
Торрент  Добавлен [26 мар 2019, 21:04] Скачать торрент Магнет ссылка
Скачать торрент
[ Размер 15.22 КБ / Просмотров 1 ]

Статус
Проверен 
 
Размер  181.72 МБ
Приватный: Нет (DHT включён)
.torrent скачан  1
 


     Отправить личное сообщение
   
Страница 1 из 1
Показать сообщения за:  Поле сортировки  
Начать новую тему Ответить на тему


Сейчас этот форум просматривают: нет зарегистрированных пользователей и гости: 0


Вы не можете начинать темы
Вы не можете отвечать на сообщения
Вы не можете редактировать свои сообщения
Вы не можете удалять свои сообщения
Вы не можете добавлять вложения

Перейти:  
cron