Начать новую тему Ответить на тему
Статистика раздачи
Размер: 197.55 МБ | Добавлен: 26 мар 2019, 21:05 | Скачали: 0
Сидеров: 0  [0 байт/сек]    Личеров: 0  [0 байт/сек]
Пред. тема | След. тема 

Автор
Сообщение

СообщениеДобавлено: 26 мар 2019, 21:05 

Ответить с цитатой 

David Gates - Falling in love again
Жанр: Pop-Rock & Soft Rock
Год выпуска диска: 1980, (2008 - Remastered)
Производитель диска: USA
Аудио кодек: APE
Тип рипа: image+.cue
Битрейт аудио: lossless
Продолжительность: 00:29:59
Трэклист:

1. Can I tell you
2. Where does the lovin' go
3. 20th century man
4. She was so young
5. Silky
6. Falling in love again
7. Starship ride
8. Chingo
9. Sweet desire
10. The rainbow song

Exact Audio Copy V0.99 prebeta 4 from 23. January 2008
Отчёт EAC об извлечении, выполненном 18. февраля 2010, 19:07
Falling in love again / David Gates
Дисковод: PLEXTOR DVDR PX-800A Adapter: 0 ID: 0
Режим чтения : Достоверность
Использование точного потока : Да
Отключение кэша аудио : Да
Использование указателей C2 : Нет
Коррекция смещения при чтении : 48
Способность читать области Lead-in и Lead-out : Нет
Заполнение пропущенных сэмплов тишиной : Да
Удаление блоков с тишиной в начале и конце : Нет
При вычислениях CRC использовались нулевые сэмплы : Да
Интерфейс : Встроенный Win32-интерфейс для Win NT/2000
Выходной формат : Внутренние WAV-операции
Формат сэмплов : 44.100 Гц; 16 бит; стерео
TOC извлечённого CD
Трек | Старт | Длительность | Начальный сектор | Конечный сектор
---------------------------------------------------------------------
1 | 0:00.00 | 3:46.01 | 0 | 16950
2 | 3:46.01 | 3:07.21 | 16951 | 30996
3 | 6:53.22 | 2:43.15 | 30997 | 43236
4 | 9:36.37 | 2:44.60 | 43237 | 55596
5 | 12:21.22 | 2:43.67 | 55597 | 67888
6 | 15:05.14 | 2:19.12 | 67889 | 78325
7 | 17:24.26 | 2:53.61 | 78326 | 91361
8 | 20:18.12 | 3:08.22 | 91362 | 105483
9 | 23:26.34 | 2:58.52 | 105484 | 118885
10 | 26:25.11 | 3:34.09 | 118886 | 134944
Характеристики диапазона извлечения и сообщения об ошибках
Выбранный диапазон
Имя файла D:\Lossless\David Gates - Falling In Love Again\Falling in love again - David Gates.wav
Пиковый уровень 100.0 %
Качество диапазона 99.9 %
CRC копии 8B534962
Копирование... OK
Ошибок не произошло
Конец отчёта
Рип с фирменного диска
Правила, инструкции, FAQ!!!
Торрент  Добавлен [26 мар 2019, 21:05] Скачать торрент Магнет ссылка
Скачать торрент
[ Размер 16.51 КБ / Просмотров 9 ]

Статус
Проверен 
 
Размер  197.55 МБ
Приватный: Нет (DHT включён)
.torrent скачан  0
 


     Отправить личное сообщение
   
Страница 1 из 1
Показать сообщения за:  Поле сортировки  
Начать новую тему Ответить на тему


Сейчас этот форум просматривают: нет зарегистрированных пользователей и гости: 0


Вы не можете начинать темы
Вы не можете отвечать на сообщения
Вы не можете редактировать свои сообщения
Вы не можете удалять свои сообщения
Вы не можете добавлять вложения

Перейти:  
cron