Начать новую тему Ответить на тему
Статистика раздачи
Размер: 192.46 МБ | Добавлен: 26 мар 2019, 20:44 | Скачали: 1
Сидеров: 0  [0 байт/сек]    Личеров: 0  [0 байт/сек]
Пред. тема | След. тема 

Автор
Сообщение

СообщениеДобавлено: 26 мар 2019, 20:44 

Ответить с цитатой 

Dane Donohue - Dane Donohue
Жанр: Pop-Rock, Soft Rock
Носитель: CD
Страна-производитель диска (релиза): Япония
Год издания: 1978 (2005)
Издатель (лейбл): Sony Music Japan
Номер по каталогу: MHCP-764
Страна исполнителя (группы): США
Аудиокодек: FLAC (*.flac)
Тип рипа: tracks+.cue
Битрейт аудио: lossless
Продолжительность: 35:16
Источник (релизер): coron (what)
Наличие сканов в содержимом раздачи: нет
Треклист:
01. Casablanca (Donohue-Fisher-Getreau) - 4:04
02. Dance with the Stranger (Donohue-Fisher) - 4:04
03. What Am I Supposed to Do (Donohue) - 3:44
04. Woman (Donohue) - 3:56
05. Where Will You Go (Donohue) - 3:43
06. Freedom (Donohue-Fisher-Getreau) - 3:06
07. Can't Be Seen (Donohue-Fisher) - 3:04
08. Whatever Happened (Donohue) - 3:05
09. Tracey (Fisher) - 3:36
10. Congratulations (Donohue-Fisher-Getreau) - 2:54
Код:
Exact Audio Copy V1.0 beta 3 from 29. August 2011
EAC extraction logfile from 6. April 2015, 12:39
Dane Donohue / Dane Donohue (2005 Remastered)
Used drive  : PIONEER BD-RW   BDR-XD05   Adapter: 2  ID: 0
Read mode               : Secure
Utilize accurate stream : Yes
Defeat audio cache      : Yes
Make use of C2 pointers : No
Read offset correction                      : 667
Overread into Lead-In and Lead-Out          : No
Fill up missing offset samples with silence : Yes
Delete leading and trailing silent blocks   : No
Null samples used in CRC calculations       : Yes
Used interface                              : Native Win32 interface for Win NT & 2000
Gap handling                                : Appended to previous track
Used output format              : User Defined Encoder
Selected bitrate                : 1024 kBit/s
Quality                         : High
Add ID3 tag                     : No
Command line compressor         : C:\Program Files (x86)\Exact Audio Copy\Flac\flac.exe
Additional command line options : -8 -V -T "ARTIST=%artist%" -T "TITLE=%title%" -T "ALBUM=%albumtitle%" -T "DATE=%year%" -T "TRACKNUMBER=%tracknr%" -T "GENRE=%genre%" -T "PERFORMER=%albuminterpret%" -T "COMPOSER=%composer%" %haslyrics%--tag-from-file=LYRICS="%lyricsfile%"%haslyrics% -T "ALBUMARTIST=%albumartist%" -T "DISCNUMBER=%cdnumber%" -T "TOTALDISCS=%totalcds%" -T "TOTALTRACKS=%numtracks%" -T "COMMENT=%comment%" %source% -o %dest%
TOC of the extracted CD
     Track |   Start  |  Length  | Start sector | End sector
    ---------------------------------------------------------
        1  |  0:00.00 |  4:04.31 |         0    |    18330
        2  |  4:04.31 |  4:03.58 |     18331    |    36613
        3  |  8:08.14 |  3:43.53 |     36614    |    53391
        4  | 11:51.67 |  3:56.22 |     53392    |    71113
        5  | 15:48.14 |  3:43.30 |     71114    |    87868
        6  | 19:31.44 |  3:06.14 |     87869    |   101832
        7  | 22:37.58 |  3:03.70 |    101833    |   115627
        8  | 25:41.53 |  3:05.02 |    115628    |   129504
        9  | 28:46.55 |  3:35.38 |    129505    |   145667
       10  | 32:22.18 |  2:53.47 |    145668    |   158689
Track  1
     Filename C:\EACRips\01 Casablanca.wav
     Pre-gap length  0:00:02.00
     Peak level 97.7 %
     Extraction speed 2.8 X
     Track quality 100.0 %
     Test CRC 539AF315
     Copy CRC 539AF315
     Accurately ripped (confidence 3)  [2891E422]  (AR v2)
     Copy OK
Track  2
     Filename C:\EACRips\02 Dance With The Stranger.wav
     Peak level 80.3 %
     Extraction speed 3.1 X
     Track quality 100.0 %
     Test CRC D972CF11
     Copy CRC D972CF11
     Accurately ripped (confidence 3)  [3943F0D2]  (AR v2)
     Copy OK
Track  3
     Filename C:\EACRips\03 What Am I Supposed To Do.wav
     Peak level 84.0 %
     Extraction speed 3.3 X
     Track quality 100.0 %
     Test CRC F4F34E9B
     Copy CRC F4F34E9B
     Accurately ripped (confidence 3)  [E6FFCEEB]  (AR v2)
     Copy OK
Track  4
     Filename C:\EACRips\04 Woman.wav
     Peak level 97.2 %
     Extraction speed 3.6 X
     Track quality 100.0 %
     Test CRC 4DC25385
     Copy CRC 4DC25385
     Accurately ripped (confidence 3)  [CCF54B5C]  (AR v2)
     Copy OK
Track  5
     Filename C:\EACRips\05 Where Will You Go.wav
     Peak level 95.6 %
     Extraction speed 3.3 X
     Track quality 99.9 %
     Test CRC 5D58E269
     Copy CRC 5D58E269
     Accurately ripped (confidence 3)  [4BB1823F]  (AR v2)
     Copy OK
Track  6
     Filename C:\EACRips\06 Freedom.wav
     Pre-gap length  0:00:01.93
     Peak level 97.7 %
     Extraction speed 3.8 X
     Track quality 100.0 %
     Test CRC 52160E36
     Copy CRC 52160E36
     Accurately ripped (confidence 3)  [A651657D]  (AR v2)
     Copy OK
Track  7
     Filename C:\EACRips\07 Can't Be Seen.wav
     Peak level 90.7 %
     Extraction speed 3.4 X
     Track quality 99.9 %
     Test CRC 4E98343D
     Copy CRC 4E98343D
     Accurately ripped (confidence 3)  [48B279BD]  (AR v2)
     Copy OK
Track  8
     Filename C:\EACRips\08 Whatever Happened.wav
     Peak level 97.7 %
     Extraction speed 4.1 X
     Track quality 100.0 %
     Test CRC 7E392EAD
     Copy CRC 7E392EAD
     Accurately ripped (confidence 3)  [56FC25BC]  (AR v2)
     Copy OK
Track  9
     Filename C:\EACRips\09 Tracey.wav
     Peak level 90.0 %
     Extraction speed 4.3 X
     Track quality 100.0 %
     Test CRC 4E303F78
     Copy CRC 4E303F78
     Accurately ripped (confidence 3)  [A098A731]  (AR v2)
     Copy OK
Track 10
     Filename C:\EACRips\10 Congratulations.wav
     Peak level 97.7 %
     Extraction speed 3.6 X
     Track quality 99.9 %
     Test CRC 83544E1E
     Copy CRC 83544E1E
     Accurately ripped (confidence 3)  [E0384AF5]  (AR v2)
     Copy OK
All tracks accurately ripped
No errors occurred
End of status report
---- CUETools DB Plugin V2.1.3
[CTDB TOCID: 1W7WpnEPlayx0vipUIY1u79Wca4-] found, Submit result: 1W7WpnEPlayx0vipUIY1u79Wca4- has been confirmed
[0dd45a0e] (2/2) Accurately ripped
==== Log checksum 928F921B1D4619D74C34FD4327BE0BF5FABADCB178133260B098D834BD7DE3C2 ====
Код:
REM GENRE Rock
REM DATE 1978
REM DISCID 8308430A
REM COMMENT "ExactAudioCopy v1.0b3"
PERFORMER "Dane Donohue"
TITLE "Dane Donohue"
FILE "01 - Casablanca.wav" WAVE
  TRACK 01 AUDIO
    TITLE "Casablanca"
    PERFORMER "Dane Donohue"
    INDEX 01 00:00:00
FILE "02 - Dance with the Stranger.wav" WAVE
  TRACK 02 AUDIO
    TITLE "Dance with the Stranger"
    PERFORMER "Dane Donohue"
    INDEX 01 00:00:00
FILE "03 - What Am I Supposed to Do.wav" WAVE
  TRACK 03 AUDIO
    TITLE "What Am I Supposed to Do"
    PERFORMER "Dane Donohue"
    INDEX 01 00:00:00
FILE "04 - Woman.wav" WAVE
  TRACK 04 AUDIO
    TITLE "Woman"
    PERFORMER "Dane Donohue"
    INDEX 01 00:00:00
FILE "05 - Where Will You Go.wav" WAVE
  TRACK 05 AUDIO
    TITLE "Where Will You Go"
    PERFORMER "Dane Donohue"
    INDEX 01 00:00:00
  TRACK 06 AUDIO
    TITLE "Freedom"
    PERFORMER "Dane Donohue"
    INDEX 00 03:41:35
FILE "06 - Freedom.wav" WAVE
    INDEX 01 00:00:00
FILE "07 - Can't Be Seen.wav" WAVE
  TRACK 07 AUDIO
    TITLE "Can't Be Seen"
    PERFORMER "Dane Donohue"
    INDEX 01 00:00:00
FILE "08 - Whatever Happened.wav" WAVE
  TRACK 08 AUDIO
    TITLE "Whatever Happened"
    PERFORMER "Dane Donohue"
    INDEX 01 00:00:00
FILE "09 - Tracey.wav" WAVE
  TRACK 09 AUDIO
    TITLE "Tracey"
    PERFORMER "Dane Donohue"
    INDEX 01 00:00:00
FILE "10 - Congratulations.wav" WAVE
  TRACK 10 AUDIO
    TITLE "Congratulations"
    PERFORMER "Dane Donohue"
    INDEX 01 00:00:00
Код:
[CUETools log; Date: 23.04.2015 18:47:29; Version: 2.1.5]
[CTDB TOCID: 1W7WpnEPlayx0vipUIY1u79Wca4-] found.
Track | CTDB Status
  1   | (3/3) Accurately ripped
  2   | (3/3) Accurately ripped
  3   | (3/3) Accurately ripped
  4   | (3/3) Accurately ripped
  5   | (3/3) Accurately ripped
  6   | (3/3) Accurately ripped
  7   | (3/3) Accurately ripped
  8   | (3/3) Accurately ripped
  9   | (3/3) Accurately ripped
 10   | (3/3) Accurately ripped
[AccurateRip ID: 000e0474-006e9a8f-8308430a] found.
Track   [  CRC   |   V2   ] Status
 01     [49fa3c08|2891e422] (0+4/4) Accurately ripped
 02     [2190ea40|3943f0d2] (0+4/4) Accurately ripped
 03     [4ec5114a|e6ffceeb] (0+4/4) Accurately ripped
 04     [4a5627aa|ccf54b5c] (0+4/4) Accurately ripped
 05     [d0a020d6|4bb1823f] (0+4/4) Accurately ripped
 06     [9c437717|a651657d] (0+4/4) Accurately ripped
 07     [ade16f08|48b279bd] (0+4/4) Accurately ripped
 08     [491e56da|56fc25bc] (0+4/4) Accurately ripped
 09     [d3f80107|a098a731] (0+4/4) Accurately ripped
 10     [68b40459|e0384af5] (0+4/4) Accurately ripped
Track Peak [ CRC32  ] [W/O NULL] [  LOG   ]
 --   97,7 [B0D7F4E8] [2BC08C97]
 01   97,7 [539AF315] [0D1A81E4]   CRC32
 02   80,3 [D972CF11] [A345C1A4]   CRC32
 03   84,0 [F4F34E9B] [5FDFF21B]   CRC32
 04   97,2 [4DC25385] [6DB15097]   CRC32
 05   95,6 [5D58E269] [7D85ECF2]   CRC32
 06   97,7 [52160E36] [BDE9180D]   CRC32
 07   90,7 [4E98343D] [5C67272F]   CRC32
 08   97,7 [7E392EAD] [F7956CA9]   CRC32
 09   90,0 [4E303F78] [0393A748]   CRC32
 10   97,7 [83544E1E] [557F9B3D]   CRC32
Judging from the "customers also bought..." listings here on Amazon, those who appreciate Dane Donohue also like Stephen Bishop, Ned Doheny, David Roberts and Terence Boylan, which helps tell you where Donohue is coming from on this album. The nearest comparison is David Roberts, as Donohue is more uptempo than Boylan or Bishop.
This is a classy, crisp rock album which, for reasons that I cannot understand, didn't get the exposure that it deserved. In truth, I wouldn't have encountered it myself but for a tip from a friend in the music business.
'Casablanca' and 'Dance with a Stranger' are outstanding, but there isn't a weak track on the album. Contributing musicians include Jai Winding, Victor Feldman, Don Henley, Stevie Nicks, J.D. Souther, Larry Carlton, Herb Pedersen, Jay Graydon, Bill Champlin, Steve Lukather, Tom Kelly...the list goes on. This under-recognised album from 1978 is a class act.
-- Friendlycard
Правила, инструкции, FAQ!!!
Торрент  Добавлен [26 мар 2019, 20:44] Скачать торрент Магнет ссылка
Скачать торрент
[ Размер 16.39 КБ / Просмотров 2 ]

Статус
Проверен 
 
Размер  192.46 МБ
Приватный: Нет (DHT включён)
.torrent скачан  1
 


     Отправить личное сообщение
   
Страница 1 из 1
Показать сообщения за:  Поле сортировки  
Начать новую тему Ответить на тему


Сейчас этот форум просматривают: нет зарегистрированных пользователей и гости: 0


Вы не можете начинать темы
Вы не можете отвечать на сообщения
Вы не можете редактировать свои сообщения
Вы не можете удалять свои сообщения
Вы не можете добавлять вложения

Перейти:  
cron