Начать новую тему Ответить на тему
Статистика раздачи
Размер: 412.1 МБ | Добавлен: 26 мар 2019, 20:48 | Скачали: 0
Сидеров: 0  [0 байт/сек]    Личеров: 4  [0 байт/сек]
Пред. тема | След. тема 

Автор
Сообщение

СообщениеДобавлено: 26 мар 2019, 20:48 

Ответить с цитатой 

Grand Drive / Grand Drive
Жанр: Pop-Rock & Soft Rock, Country, Indie, Alternative
Год издания диска: 2003
Издатель (лейбл): Private Music \ Gravity\BMG
Номер по каталогу: 50565
Страна: Англия
Аудио кодек: FLAC (*.flac)
Тип рипа: tracks+.cue
Битрейт аудио: lossless
Продолжительность: 1:00:56
Источник (релизер): CD
Наличие сканов в содержимом раздачи: да
Треклист:
1. Firefly
2. A Little Like You
3. You and I
4. Track 40
5. Needle in the Groove
6. No Doubt About It
7. Wheels
8. Sleepy
9. True Love and High Adventure
10. Nobody's Song in Particular
11. A Little Numb
12. Tell It Like It Is
13. Jukebox
Код:
Exact Audio Copy V1.0 beta 1 from 15. November 2010
EAC extraction logfile from 21. December 2010, 19:01
Grand Drive / Grand Drive
Used drive  : ASUS    DRW-22B2L   Adapter: 3  ID: 0
Read mode               : Secure
Utilize accurate stream : Yes
Defeat audio cache      : Yes
Make use of C2 pointers : No
Read offset correction                      : 6
Overread into Lead-In and Lead-Out          : No
Fill up missing offset samples with silence : Yes
Delete leading and trailing silent blocks   : No
Null samples used in CRC calculations       : Yes
Used interface                              : Native Win32 interface for Win NT & 2000
Gap handling                                : Appended to previous track
Used output format              : User Defined Encoder
Selected bitrate                : 128 kBit/s
Quality                         : High
Add ID3 tag                     : No
Command line compressor         : E:\Програмы\Музыка - Видео\Exact Audio Copy 1.0 beta 1\Flac\flac.exe
Additional command line options : -8 -V -T "ARTIST=%a" -T "TITLE=%t" -T "ALBUM=%g" -T "DATE=%y" -T "TRACKNUMBER=%n" -T "GENRE=%m" -T "COMMENT=EAC FLAC -8" %s
TOC of the extracted CD
     Track |   Start  |  Length  | Start sector | End sector
    ---------------------------------------------------------
        1  |  0:00.00 |  4:04.20 |         0    |    18319
        2  |  4:04.20 |  4:01.65 |     18320    |    36459
        3  |  8:06.10 |  3:42.62 |     36460    |    53171
        4  | 11:48.72 |  4:46.28 |     53172    |    74649
        5  | 16:35.25 |  2:39.20 |     74650    |    86594
        6  | 19:14.45 |  6:09.62 |     86595    |   114331
        7  | 25:24.32 |  4:34.68 |    114332    |   134949
        8  | 29:59.25 |  4:50.47 |    134950    |   156746
        9  | 34:49.72 |  7:01.70 |    156747    |   188391
       10  | 41:51.67 |  6:27.53 |    188392    |   217469
       11  | 48:19.45 |  4:26.70 |    217470    |   237489
       12  | 52:46.40 |  4:37.07 |    237490    |   258271
       13  | 57:23.47 |  3:58.30 |    258272    |   276151
Track  1
     Filename E:\01. Firefly.wav
     Pre-gap length  0:00:02.00
     Peak level 98.8 %
     Extraction speed 1.8 X
     Track quality 100.0 %
     Test CRC 1006F261
     Copy CRC 1006F261
     Accurately ripped (confidence 3)  [45110B00]
     Copy OK
Track  2
     Filename E:\02. A Little Like You.wav
     Peak level 98.8 %
     Extraction speed 2.0 X
     Track quality 100.0 %
     Test CRC 70E9714C
     Copy CRC 70E9714C
     Accurately ripped (confidence 3)  [B5E0AD80]
     Copy OK
Track  3
     Filename E:\03. You And I.wav
     Pre-gap length  0:00:00.93
     Peak level 95.5 %
     Extraction speed 1.5 X
     Track quality 99.9 %
     Test CRC 70238431
     Copy CRC 70238431
     Accurately ripped (confidence 3)  [BEDF8B1E]
     Copy OK
Track  4
     Filename E:\04. Track 40.wav
     Pre-gap length  0:00:00.73
     Peak level 98.8 %
     Extraction speed 2.4 X
     Track quality 100.0 %
     Test CRC D309697E
     Copy CRC D309697E
     Accurately ripped (confidence 3)  [456B9E76]
     Copy OK
Track  5
     Filename E:\05. Needle In The Groove.wav
     Pre-gap length  0:00:02.50
     Peak level 98.8 %
     Extraction speed 2.3 X
     Track quality 100.0 %
     Test CRC 51B3E3F4
     Copy CRC 51B3E3F4
     Accurately ripped (confidence 3)  [0B396C2C]
     Copy OK
Track  6
     Filename E:\06. No Doubt About It.wav
     Pre-gap length  0:00:01.80
     Peak level 93.3 %
     Extraction speed 2.7 X
     Track quality 100.0 %
     Test CRC 613B5288
     Copy CRC 613B5288
     Accurately ripped (confidence 3)  [742F91A7]
     Copy OK
Track  7
     Filename E:\07. Wheels.wav
     Pre-gap length  0:00:03.16
     Peak level 96.7 %
     Extraction speed 2.8 X
     Track quality 100.0 %
     Test CRC C4768E79
     Copy CRC C4768E79
     Accurately ripped (confidence 3)  [BE21386E]
     Copy OK
Track  8
     Filename E:\08. Sleepy.wav
     Pre-gap length  0:00:03.37
     Peak level 100.0 %
     Extraction speed 3.0 X
     Track quality 100.0 %
     Test CRC FF8975A2
     Copy CRC FF8975A2
     Accurately ripped (confidence 3)  [0AAC841B]
     Copy OK
Track  9
     Filename E:\09. True Love And High Adventure.wav
     Pre-gap length  0:00:02.53
     Peak level 97.8 %
     Extraction speed 3.3 X
     Track quality 100.0 %
     Test CRC 320DD075
     Copy CRC 320DD075
     Accurately ripped (confidence 3)  [A61446E3]
     Copy OK
Track 10
     Filename E:\10. Nobody's Song In Particular.wav
     Pre-gap length  0:00:02.42
     Peak level 97.8 %
     Extraction speed 3.5 X
     Track quality 100.0 %
     Test CRC 87B55B84
     Copy CRC 87B55B84
     Accurately ripped (confidence 3)  [D8EE7A74]
     Copy OK
Track 11
     Filename E:\11. A Little Numb.wav
     Pre-gap length  0:00:01.86
     Peak level 95.6 %
     Extraction speed 3.4 X
     Track quality 100.0 %
     Test CRC FF4594B4
     Copy CRC FF4594B4
     Accurately ripped (confidence 3)  [1E713FCC]
     Copy OK
Track 12
     Filename E:\12. Tell It Like It Is.wav
     Pre-gap length  0:00:03.04
     Peak level 99.8 %
     Extraction speed 3.6 X
     Track quality 100.0 %
     Test CRC 9753AB7F
     Copy CRC 9753AB7F
     Accurately ripped (confidence 3)  [4877E8D9]
     Copy OK
Track 13
     Filename E:\13. Jukebox.wav
     Pre-gap length  0:00:03.00
     Peak level 97.6 %
     Extraction speed 2.6 X
     Track quality 99.9 %
     Test CRC CCC07357
     Copy CRC CCC07357
     Accurately ripped (confidence 3)  [EEAFB631]
     Copy OK
All tracks accurately ripped
No errors occurred
End of status report
==== Log checksum 40EE6F0131F70BF500305E5D4531ADEAE3789DA0435466851EBD486485DBA345 ====
Код:
REM GENRE "Alt. Rock"
REM DATE 2003
REM DISCID AD0E620D
REM COMMENT "ExactAudioCopy v1.0b1"
PERFORMER "Grand Drive"
TITLE "Grand Drive"
FILE "01. Firefly.wav" WAVE
  TRACK 01 AUDIO
    TITLE "Firefly"
    PERFORMER "Grand Drive"
    INDEX 01 00:00:00
FILE "02. A Little Like You.wav" WAVE
  TRACK 02 AUDIO
    TITLE "A Little Like You"
    PERFORMER "Grand Drive"
    INDEX 01 00:00:00
  TRACK 03 AUDIO
    TITLE "You And I"
    PERFORMER "Grand Drive"
    INDEX 00 04:00:70
FILE "03. You And I.wav" WAVE
    INDEX 01 00:00:00
  TRACK 04 AUDIO
    TITLE "Track 40"
    PERFORMER "Grand Drive"
    INDEX 00 03:42:07
FILE "04. Track 40.wav" WAVE
    INDEX 01 00:00:00
  TRACK 05 AUDIO
    TITLE "Needle In The Groove"
    PERFORMER "Grand Drive"
    INDEX 00 04:43:65
FILE "05. Needle In The Groove.wav" WAVE
    INDEX 01 00:00:00
  TRACK 06 AUDIO
    TITLE "No Doubt About It"
    PERFORMER "Grand Drive"
    INDEX 00 02:37:35
FILE "06. No Doubt About It.wav" WAVE
    INDEX 01 00:00:00
  TRACK 07 AUDIO
    TITLE "Wheels"
    PERFORMER "Grand Drive"
    INDEX 00 06:06:50
FILE "07. Wheels.wav" WAVE
    INDEX 01 00:00:00
  TRACK 08 AUDIO
    TITLE "Sleepy"
    PERFORMER "Grand Drive"
    INDEX 00 04:31:40
FILE "08. Sleepy.wav" WAVE
    INDEX 01 00:00:00
  TRACK 09 AUDIO
    TITLE "True Love And High Adventure"
    PERFORMER "Grand Drive"
    INDEX 00 04:48:07
FILE "09. True Love And High Adventure.wav" WAVE
    INDEX 01 00:00:00
  TRACK 10 AUDIO
    TITLE "Nobody's Song In Particular"
    PERFORMER "Grand Drive"
    INDEX 00 06:59:38
FILE "10. Nobody's Song In Particular.wav" WAVE
    INDEX 01 00:00:00
  TRACK 11 AUDIO
    TITLE "A Little Numb"
    PERFORMER "Grand Drive"
    INDEX 00 06:25:63
FILE "11. A Little Numb.wav" WAVE
    INDEX 01 00:00:00
  TRACK 12 AUDIO
    TITLE "Tell It Like It Is"
    PERFORMER "Grand Drive"
    INDEX 00 04:23:67
FILE "12. Tell It Like It Is.wav" WAVE
    INDEX 01 00:00:00
  TRACK 13 AUDIO
    TITLE "Jukebox"
    PERFORMER "Grand Drive"
    INDEX 00 04:34:07
FILE "13. Jukebox.wav" WAVE
    INDEX 01 00:00:00
Википедия
AllMusic
Grand Drive's brothers Danny Wilson (lead vocals/guitar) and Julian Wilson (keyboards) were originally from Australia, but grew up in the stony southwest London suburb of Sutton in the '70s. In school, they met bassist Ed Balch and formed their first group, Soul Green, with several temporary drummers. It wasn't until 1992 that they found a more permanent stickman in Paul Wigens and changed their name to Grand Drive, taking their name from a long, meandering road in South London that connected Raynes Park (where one of the Wilsons lived) with Sutton. Grand Drive's first release was "Tell It Like It Is" (it had originally been recorded in October 1995, but wasn't released until November 1997 as 7" on the Vinyl Junkie label and later reissued on an EP by the Vaclav imprint). The single -- like much of their material, which combines uptempo country-rock with gloriously soulful arrangements -- was named Single of the Week by NME, which called it "one of the most luscious, soul-tugging singles of the year." Julian Wilson, meanwhile, took time off to play Hammond organ for Gene and also appeared on the Drawn to the Deep End album. In May 1998, Vaclav issued Grand Drive's On a Good Day EP as a limited-edition CD and 7" single. Grand Drive then came to the attention of Tom Bridgewater and Mark Rogers' London-based Loose Recordings (launched in 1998 with their genre-defining New Sounds of the Old West alt-country/American compilations). Loose issued their Wrong Notes EP in December 1998 and, in April 1999, compiled their first album, Road Music, from the three previously released EPs and two singles. The group returned to the studio and in September 2000, Loose released their adventurous True Love and High Adventure album. Comprised of 11 new songs boosted with ornate string and brass arrangements, the album -- co-produced by the Wilsons and producer Pete Hoffman -- raised the bar for orchestral country-rock. After its release, Julian moved to Paris to be with his girlfriend and the band had put any plans on hold until RCA Victor purloined the group and signed it to a substantial record deal. The label re-released True Love and High Adventure and Road Music in April 2001. In June, RCA Victor issued the band's Wheels EP. Coming off a hot performance at the annual SXSW music conference in spring 2003, Grand Drive were more than ready to release their stateside debut in May. Grand Drive collects 13 tracks from the band's three previous albums, which were initially available in the U.K.
The English four-piece Grand Drive takes note from its alt-country counterparts (Wilco, Whiskeytown) and derives a sun-soaked Americana sound all its own on the band's self-titled U.S. debut. Grand Drive, which marks the quartet's first stateside release, collects 13 tracks from the group's three previous albums -- Road Music (1999), True Love and High Adventure (2000), and See the Morning In (2002) -- originally issued on BMG in the U.K., highlighting a lilting mix of soul, folk, and country. Brothers Danny and Julian Wilson are a solid musical pair; as songwriters, they're quick-witted and smart, and as musicians, they're exact and simple in shaping up classic bits of rock & roll. From the blue-eyed soul of "Needle in the Groove" to the honeyed acoustics of "Firefly," Grand Drive composes an honest, laid-back sound. Fiddles shyly chime throughout the bittersweet "A Little Like You," while "Sleepy" captures slow dancin' with classic '60s soul-pop. Grand Drive makes its biggest rock effort yet on "Tell It Like It Is." Like the majority of the album, its piano-driven, feel-good classic rock sound glows with a passion similar to Bruce Springsteen and Neil Young. The members of Grand Drive are earnest and pure with their craft, honing what's musically tried and true to them as a band. In the process, they recorded a pleasurable set of songs. Not bad for a bunch of Australian boys raised in London.
by MacKenzie Wilson
Правила, инструкции, FAQ!!!
Торрент  Добавлен [26 мар 2019, 20:48] Скачать торрент Магнет ссылка
Скачать торрент
[ Размер 18.21 КБ / Просмотров 3 ]

Статус
Проверен 
 
Размер  412.1 МБ
Приватный: Нет (DHT включён)
.torrent скачан  0
 


     Отправить личное сообщение
   
Страница 1 из 1
Показать сообщения за:  Поле сортировки  
Начать новую тему Ответить на тему


Сейчас этот форум просматривают: нет зарегистрированных пользователей и гости: 0


Вы не можете начинать темы
Вы не можете отвечать на сообщения
Вы не можете редактировать свои сообщения
Вы не можете удалять свои сообщения
Вы не можете добавлять вложения

Перейти:  
cron