Начать новую тему Ответить на тему
Статистика раздачи
Размер: 125.34 МБ | Добавлен: 26 мар 2019, 19:39 | Скачали: 0
Сидеров: 0  [0 байт/сек]    Личеров: 0  [0 байт/сек]
Пред. тема | След. тема 

Автор
Сообщение

СообщениеДобавлено: 26 мар 2019, 19:39 

Ответить с цитатой 

Cotton Mather / Hotel Baltimore
Жанр: Pop-Rock & Soft Rock
Носитель: CD
Страна-производитель диска: USA
Год издания: 1999
Издатель (лейбл): Rainbow Quartz
Номер по каталогу: RQTZ 028
Страна: USA
Аудиокодек: FLAC (*.flac)
Тип рипа: tracks+.cue
Битрейт аудио: lossless
Продолжительность: 17,36
Источник (релизер): собственный CD
Наличие сканов в содержимом раздачи: нет
Треклист:
01 - Lost My Motto [Millennium Chrome Version] (3:56)
02 - El Matador (2:10)
03 - Baby Freeze Queen II (1:56)
04 - Missing the Boat (1:55)
05 - John Wayne Jung (Music for Film Short) (2:55)
06 - Dream Girl (2:46)
07 - Altar Boy (Jimbo's Theme) (1:58)
Код:
Exact Audio Copy V1.0 beta 3 from 29. August 2011
EAC extraction logfile from 5. December 2013, 20:11
Cotton Mather / Hotel Baltimore
Used drive  : Optiarc DVD RW AD-7201A   Adapter: 0  ID: 0
Read mode               : Secure
Utilize accurate stream : Yes
Defeat audio cache      : Yes
Make use of C2 pointers : No
Read offset correction                      : 48
Overread into Lead-In and Lead-Out          : No
Fill up missing offset samples with silence : Yes
Delete leading and trailing silent blocks   : No
Null samples used in CRC calculations       : Yes
Used interface                              : Native Win32 interface for Win NT & 2000
Gap handling                                : Appended to previous track
Used output format              : User Defined Encoder
Selected bitrate                : 768 kBit/s
Quality                         : High
Add ID3 tag                     : No
Command line compressor         : C:\Program Files\Exact Audio Copy\FLAC\FLAC.EXE
Additional command line options :
-6 -V -T "ARTIST=%artist%" -T "TITLE=%title%" -T "ALBUM=%albumtitle%"
-T "DATE=%year%" -T "TRACKNUMBER=%tracknr%" -T "GENRE=%genre%"
-T "COMMENT=%comment%" -T "BAND=%albuminterpret%"
-T "ALBUMARTIST=%albuminterpret%"
-T "COMPOSER=%composer%" %haslyrics%--tag-from-file=LYRICS="%lyricsfile%"%haslyrics%
-T "DISCNUMBER=%cdnumber%" -T "TOTALDISCS=%totalcds%"
-T "TOTALTRACKS=%numtracks%" %hascover%--picture="%coverfile%"%hascover% %source% -o %dest%
TOC of the extracted CD
     Track |   Start  |  Length  | Start sector | End sector
    ---------------------------------------------------------
        1  |  0:00.00 |  3:56.15 |         0    |    17714
        2  |  3:56.15 |  2:10.05 |     17715    |    27469
        3  |  6:06.20 |  1:56.15 |     27470    |    36184
        4  |  8:02.35 |  1:54.60 |     36185    |    44794
        5  |  9:57.20 |  2:55.35 |     44795    |    57954
        6  | 12:52.55 |  2:46.32 |     57955    |    70436
        7  | 15:39.12 |  1:57.50 |     70437    |    79261
Track  1
     Filename C:\Documents and Settings\Владелец\Мои документы\01. Lost My Motto (Millenium Chrome Edition).wav
     Pre-gap length  0:00:02.00
     Peak level 99.9 %
     Extraction speed 1.9 X
     Track quality 99.9 %
     Test CRC BC2CE715
     Copy CRC BC2CE715
     Accurately ripped (confidence 1)  [E6921397]  (AR v1)
     Copy OK
Track  2
     Filename C:\Documents and Settings\Владелец\Мои документы\02. El Matador.wav
     Peak level 99.3 %
     Extraction speed 2.1 X
     Track quality 100.0 %
     Test CRC 0B60F2C3
     Copy CRC 0B60F2C3
     Accurately ripped (confidence 1)  [5B9B6B4C]  (AR v1)
     Copy OK
Track  3
     Filename C:\Documents and Settings\Владелец\Мои документы\03. Baby Freeze Queen II.wav
     Peak level 80.6 %
     Extraction speed 1.8 X
     Track quality 99.9 %
     Test CRC 55C9F695
     Copy CRC 55C9F695
     Accurately ripped (confidence 1)  [43167D2E]  (AR v1)
     Copy OK
Track  4
     Filename C:\Documents and Settings\Владелец\Мои документы\04. Missing the Boat.wav
     Peak level 99.9 %
     Extraction speed 2.3 X
     Track quality 100.0 %
     Test CRC 4C5E8FB1
     Copy CRC 4C5E8FB1
     Accurately ripped (confidence 1)  [742EDF23]  (AR v1)
     Copy OK
Track  5
     Filename C:\Documents and Settings\Владелец\Мои документы\05. John Wayne Jung (Music for Film Short).wav
     Peak level 90.3 %
     Extraction speed 2.7 X
     Track quality 100.0 %
     Test CRC 491F38DE
     Copy CRC 491F38DE
     Accurately ripped (confidence 1)  [AC273CBC]  (AR v1)
     Copy OK
Track  6
     Filename C:\Documents and Settings\Владелец\Мои документы\06. Dream Girl.wav
     Peak level 96.9 %
     Extraction speed 2.8 X
     Track quality 100.0 %
     Test CRC F909AAC0
     Copy CRC F909AAC0
     Accurately ripped (confidence 1)  [0BB8EC2D]  (AR v1)
     Copy OK
Track  7
     Filename C:\Documents and Settings\Владелец\Мои документы\07. Altar Boy (Jimbo's Theme).wav
     Peak level 98.9 %
     Extraction speed 2.7 X
     Track quality 100.0 %
     Test CRC DAA80CF8
     Copy CRC DAA80CF8
     Accurately ripped (confidence 1)  [078B9F88]  (AR v1)
     Copy OK
All tracks accurately ripped
No errors occurred
End of status report
==== Log checksum BC325319EFB75C641918BB469BD085D729991CF5226C52C430ED1FE5EABE87B5 ====
Код:
REM DISCID 67042007
REM COMMENT "ExactAudioCopy v1.0b3"
PERFORMER "Cotton Mather"
TITLE "Hotel Baltimore"
FILE "01. Lost My Motto (Millenium Chrome Edition).wav" WAVE
  TRACK 01 AUDIO
    TITLE "Lost My Motto (Millenium Chrome Edition)"
    PERFORMER "Cotton Mather"
    INDEX 01 00:00:00
FILE "02. El Matador.wav" WAVE
  TRACK 02 AUDIO
    TITLE "El Matador"
    PERFORMER "Cotton Mather"
    INDEX 01 00:00:00
FILE "03. Baby Freeze Queen II.wav" WAVE
  TRACK 03 AUDIO
    TITLE "Baby Freeze Queen II"
    PERFORMER "Cotton Mather"
    INDEX 01 00:00:00
FILE "04. Missing the Boat.wav" WAVE
  TRACK 04 AUDIO
    TITLE "Missing the Boat"
    PERFORMER "Cotton Mather"
    INDEX 01 00:00:00
FILE "05. John Wayne Jung (Music for Film Short).wav" WAVE
  TRACK 05 AUDIO
    TITLE "John Wayne Jung (Music for Film Short)"
    PERFORMER "Cotton Mather"
    INDEX 01 00:00:00
FILE "06. Dream Girl.wav" WAVE
  TRACK 06 AUDIO
    TITLE "Dream Girl"
    PERFORMER "Cotton Mather"
    INDEX 01 00:00:00
FILE "07. Altar Boy (Jimbo's Theme).wav" WAVE
  TRACK 07 AUDIO
    TITLE "Altar Boy (Jimbo's Theme)"
    PERFORMER "Cotton Mather"
    INDEX 01 00:00:00
Группа Cotton Mather была образована в 1991 году в городе Остин (Austin), штат Техас. Названа по имени известного американского проповедника и писателя.
Первоначальный состав:
Robert Harrison - гитара, вокал.
Whit Williams - гитара.
Matt Hovis - бас-гитара.
Greg Thibeaux - ударные.
Этим составом в 1991-м году был записан EP - «The Crafty Flower Arranger» и первый альбом - «Cotton is King». Когда звукозаписывающая компания обанкротилась, Роберт Харрисон распустил группу и стал преподавать в одной из школ Техаса. Однако через некоторое время он связался с Вайтом Вильямсом и они решили записать, как говорил впоследствии Харрисон, «пару вещей для собственного удовольствия у себя в гараже». Дана Мизер (Dana Mizer) стал новым барабанщиком. А Вильямс совмещал бас и электрогитару.
Практически все, кто слушал записи группы, говорили, что это «реально круто», и Харрисон с Вильямсом решили создалть свой собственный лейбл чтобы выпускать альбомы самостоятельно. Но изданный малым тиражом альбом «Kontiki» не принес группе особенного успеха, и Дана Мизер покинул группу.
Все шло к тому, что группе было предназначено прозябать и увядать в неизвестности, если б в дело не вмешался гитарист группы Oasis Ноэл Галлахер (Noel Gallagher) который начал продвигать группу в английской прессе и в результате, знаменитый и влиятельный британский лейбл «Rainbow Quartz» издал «Kontiki» в Великобритании в 1998 году.
Харрисон с Вильямсом быстренько вернули Мизера обратно в группу, включили в состав нового бас-гитариста - Джоша Гревелина (Josh Gravelin), и провели успешный тур по Великобритании, после которого записали EP «Hotel Baltimore».
Хронические проблемы со спиной у Роберта Харрисона обострились после того как он попал в автокатастрофу. Группе пришлось месяцы ждать, пока Харрисон пройдет курсы лечения и реабилитации, что плохо сказалось на атмосфере внутри группы и вскоре после записи в 2001 году альбома - «The Big Picture», группа закончила свое существование.
Хотя Cotton Mather пользовались большой любовью критиков и известных коллег-музыкантов, группа так и не смогла привлечь к себе внимание широких масс, оставшись группой для узкого круга людей.
Харрисон создал новую группу - Future Clouds & Radars, где играет и Гревелин. Дана Мизер и Вайт Вильямсон играют с Роном Флинтом (Ron Flynt) в группе Stockton.
Cotton Mather Reunion.
In Spring 2012, Cotton Mather reunited to perform as a band in support of the Kon Tiki deluxe CD reissue. The lineup included the best-known version of the band with Robert Harrison, Whit Williams, Josh Gravelin and Dana Myzer.
Although their live appearances were initially intended to be limited engagements, Cotton Mather have continued to perform live as a quartet at high profile music festivals and special events. Cotton Mather recently performed at LouFest music festival with The Flaming Lips and Dinosaur Jr..
In addition to Cotton Mather, singer Robert Harrison will continue to write, record and tour with his other group, Future Clouds and Radar.
New Studio Release.
After performing shows and making appearances to critical acclaim, Cotton Mather have recorded and released a new studio single entitled "I'll Be Gone." The band are currently working on an all-new studio album, which will be followed by a double-disc live album featuring the quartet live in concert.
Robert Harrison - гитара, вокал.
Whit Williams - гитара.
Josh Gravelin - бас-гитара.
Dana Mizer - ударные.
Правила, инструкции, FAQ!!!
Торрент  Добавлен [26 мар 2019, 19:39] Скачать торрент Магнет ссылка
Скачать торрент
[ Размер 20.72 КБ / Просмотров 5 ]

Статус
Проверен 
 
Размер  125.34 МБ
Приватный: Нет (DHT включён)
.torrent скачан  0
 


     Отправить личное сообщение
   
Страница 1 из 1
Показать сообщения за:  Поле сортировки  
Начать новую тему Ответить на тему


Сейчас этот форум просматривают: нет зарегистрированных пользователей и гости: 0


Вы не можете начинать темы
Вы не можете отвечать на сообщения
Вы не можете редактировать свои сообщения
Вы не можете удалять свои сообщения
Вы не можете добавлять вложения

Перейти:  
cron