Начать новую тему Ответить на тему
Статистика раздачи
Размер: 472.93 МБ | Добавлен: 26 мар 2019, 20:11 | Скачали: 0
Сидеров: 0  [0 байт/сек]    Личеров: 1  [0 байт/сек]
Пред. тема | След. тема 

Автор
Сообщение

СообщениеДобавлено: 26 мар 2019, 20:11 

Ответить с цитатой 

Cliff Richard - 1980s
Жанр: Pop-Rock, Soft Rock
Страна-производитель диска: EU
Год издания диска: 1999
Издатель (лейбл): Disky Communications Europe B.V.
Номер по каталогу: BX 855212
Страна: UK
Аудио кодек: FLAC (*.flac)
Тип рипа: image+.cue
Битрейт аудио: lossless
Продолжительность: 01:03:31
Источник (релизер): Victor
Наличие сканов в содержимом раздачи: да
Треклист:
01. Wired For Sound 03:38
02. Please Don't Fall In Love 03:13
03. We Don't Talk Anymore (with The London Phillharmonic Orchestra) 04:41
04. Miss You Nights (with The London Phillharmonic Orchestra) 04:12
05. Love Ya 03:27
06. Give A Little Bit More 03:35
07. A Heart Will Break 03:58
08. La Gonave 03:59
09. Ocean Deep 05:16
10. The Only Way Out 03:24
11. Lucille 03:41
12. Donna 04:21
13. One Time Lover Man 03:31
14. The Water Is Wide 03:51
15. Reunion Of The Heart 04:25
16. Two Hearts 04:10
Код:
Exact Audio Copy V1.0 beta 1 from 15. November 2010
EAC extraction logfile from 15. August 2011, 0:49
Cliff Richard / 1980s
Used drive : ATAPI iHAP122 W Adapter: 1 ID: 0
Read mode : Secure
Utilize accurate stream : Yes
Defeat audio cache : Yes
Make use of C2 pointers : No
Read offset correction : 24
Overread into Lead-In and Lead-Out : Yes
Fill up missing offset samples with silence : Yes
Delete leading and trailing silent blocks : No
Null samples used in CRC calculations : Yes
Used interface : Native Win32 interface for Win NT & 2000
Used output format : Internal WAV Routines
Sample format : 44.100 Hz; 16 Bit; Stereo
TOC of the extracted CD
 Track | Start | Length | Start sector | End sector
 ---------------------------------------------------------
 1 | 0:00.00 | 3:38.12 | 0 | 16361
 2 | 3:38.12 | 3:13.64 | 16362 | 30900
 3 | 6:52.01 | 4:41.52 | 30901 | 52027
 4 | 11:33.53 | 4:12.46 | 52028 | 70973
 5 | 15:46.24 | 3:27.60 | 70974 | 86558
 6 | 19:14.09 | 3:35.31 | 86559 | 102714
 7 | 22:49.40 | 3:58.59 | 102715 | 120623
 8 | 26:48.24 | 3:59.51 | 120624 | 138599
 9 | 30:48.00 | 5:16.28 | 138600 | 162327
 10 | 36:04.28 | 3:24.07 | 162328 | 177634
 11 | 39:28.35 | 3:41.02 | 177635 | 194211
 12 | 43:09.37 | 4:21.70 | 194212 | 213856
 13 | 47:31.32 | 3:31.37 | 213857 | 229718
 14 | 51:02.69 | 3:51.53 | 229719 | 247096
 15 | 54:54.47 | 4:25.48 | 247097 | 267019
 16 | 59:20.20 | 4:10.45 | 267020 | 285814
Range status and errors
Selected range
 Filename C:\MusicBox\Cliff Richard - 1980s.wav
 Peak level 99.3 %
 Extraction speed 0.6 X
 Range quality 100.0 %
 Copy CRC 7EA04FA8
 Copy OK
No errors occurred
AccurateRip summary
Track 1 not present in database
Track 2 not present in database
Track 3 not present in database
Track 4 not present in database
Track 5 not present in database
Track 6 not present in database
Track 7 not present in database
Track 8 not present in database
Track 9 not present in database
Track 10 not present in database
Track 11 not present in database
Track 12 not present in database
Track 13 not present in database
Track 14 not present in database
Track 15 not present in database
Track 16 not present in database
None of the tracks are present in the AccurateRip database
End of status report
Код:
REM DISCID D60EE210
REM COMMENT "ExactAudioCopy v1.0b1"
PERFORMER "Cliff Richard"
TITLE "1980s"
FILE "Cliff Richard - 1980s.flac" WAVE
  TRACK 01 AUDIO
    TITLE "Wired For Sound"
    PERFORMER "Cliff Richard"
    INDEX 01 00:00:00
  TRACK 02 AUDIO
    TITLE "Please Don't Fall In Love"
    PERFORMER "Cliff Richard"
    INDEX 01 03:38:12
  TRACK 03 AUDIO
    TITLE "We Don't Talk Anymore (with The London Phillharmonic Orchestra)"
    PERFORMER "Cliff Richard"
    INDEX 01 06:52:01
  TRACK 04 AUDIO
    TITLE "Miss You Nights (with The London Phillharmonic Orchestra)"
    PERFORMER "Cliff Richard"
    INDEX 01 11:33:53
  TRACK 05 AUDIO
    TITLE "Love Ya"
    PERFORMER "Cliff Richard"
    INDEX 01 15:46:24
  TRACK 06 AUDIO
    TITLE "Give A Little Bit More"
    PERFORMER "Cliff Richard"
    INDEX 01 19:14:09
  TRACK 07 AUDIO
    TITLE "A Heart Will Break"
    PERFORMER "Cliff Richard"
    INDEX 01 22:49:40
  TRACK 08 AUDIO
    TITLE "La Gonave"
    PERFORMER "Cliff Richard"
    INDEX 01 26:48:24
  TRACK 09 AUDIO
    TITLE "Ocean Deep"
    PERFORMER "Cliff Richard"
    INDEX 01 30:48:00
  TRACK 10 AUDIO
    TITLE "The Only Way Out"
    PERFORMER "Cliff Richard"
    INDEX 01 36:04:28
  TRACK 11 AUDIO
    TITLE "Lucille"
    PERFORMER "Cliff Richard"
    INDEX 01 39:28:35
  TRACK 12 AUDIO
    TITLE "Donna"
    PERFORMER "Cliff Richard"
    INDEX 01 43:09:37
  TRACK 13 AUDIO
    TITLE "One Time Lover Man"
    PERFORMER "Cliff Richard"
    INDEX 01 47:31:32
  TRACK 14 AUDIO
    TITLE "The Water Is Wide"
    PERFORMER "Cliff Richard"
    INDEX 01 51:02:69
  TRACK 15 AUDIO
    TITLE "Reunion Of The Heart"
    PERFORMER "Cliff Richard"
    INDEX 01 54:54:47
  TRACK 16 AUDIO
    TITLE "Two Hearts"
    PERFORMER "Cliff Richard"
    INDEX 01 59:20:20
Код:
AUDIOCHECKER v2.0 beta (build 457) - by Dester - opdester@freemail.hu
~~~~~~~~~~~~~~~~~~~~~~~~~~~~~~~~~~
-=== НЕ РЕДАКТИРУЙТЕ ЭТОТ ФАЙЛ! ===-
Путь: ...\Cliff Richard - 1980s (1999)
1 -=- Cliff Richard - 1980s.flac -=- CDDA (100%)
202741956
Доп. информация:
Правила, инструкции, FAQ!!!
Торрент  Добавлен [26 мар 2019, 20:11] Скачать торрент Магнет ссылка
Скачать торрент
[ Размер 19.39 КБ / Просмотров 2 ]

Статус
Проверен 
 
Размер  472.93 МБ
Приватный: Нет (DHT включён)
.torrent скачан  0
 


     Отправить личное сообщение
   
Страница 1 из 1
Показать сообщения за:  Поле сортировки  
Начать новую тему Ответить на тему


Сейчас этот форум просматривают: нет зарегистрированных пользователей и гости: 0


Вы не можете начинать темы
Вы не можете отвечать на сообщения
Вы не можете редактировать свои сообщения
Вы не можете удалять свои сообщения
Вы не можете добавлять вложения

Перейти:  
cron