Начать новую тему Ответить на тему
Статистика раздачи
Размер: 405.24 МБ | Добавлен: 26 мар 2019, 20:05 | Скачали: 0
Сидеров: 0  [0 байт/сек]    Личеров: 0  [0 байт/сек]
Пред. тема | След. тема 

Автор
Сообщение

СообщениеДобавлено: 26 мар 2019, 20:05 

Ответить с цитатой 

U2 - Children of the revolution (Demo Songs 1978-2000) Different quality
Жанр: Pop-Rock & Soft Rock
Год выпуска диска: 2002
Производитель диска: EU
Аудио кодек: FLAC
Тип рипа: tracks+.cue
Битрейт аудио: lossless
Продолжительность: 01:18:34
Треклист:
01. Street Missions (4:20)
02. Shadows And Tall Trees (4:36)
03. The Fool (4:16)
04. Lost On A Distant Planet (3:51)
05. Twilight (4:41)
06. Another Time Another Place (4:45)
07. Alone In The Light (2:22)
08. 11 O Clock Tick Tock (3:45)
09. Touch (3:31)
10. Another Day (3:43)
11. The Dream Is Over (2:58)
12. Out Of Control (3:58)
13. Boy Girl (3:28)
14. Stories For Boys (2:47)
15. A Day Without Me (3:43)
16. Boy Girl (Live) (3:25)
17. Things To Make And Do (2:13)
18. J Swallow (2:17)
19. I Will Follow (5:33)
20. Trash Trampoline And Party Gir (2:32)
21. Two Hearts Beat As One (3:38)
22. Glad To See You (2:12)
Сканы в комплекте
Exact Audio Copy V0.99 prebeta 4 from 23. January 2008
EAC extraction logfile from 8. August 2010, 11:50
U2 / Children of the revolution
Used drive : PIONEER DVD-RW DVR-110D Adapter: 0 ID: 0
Read mode : Secure
Utilize accurate stream : Yes
Defeat audio cache : Yes
Make use of C2 pointers : No
Read offset correction : 48
Overread into Lead-In and Lead-Out : No
Fill up missing offset samples with silence : Yes
Delete leading and trailing silent blocks : No
Null samples used in CRC calculations : Yes
Used interface : Native Win32 interface for Win NT & 2000
Gap handling : Appended to previous track
Used output format : User Defined Encoder
Selected bitrate : 192 kBit/s
Quality : High
Add ID3 tag : No
Command line compressor : D:\Distrib\Мультимедиа\Кодеки\Flac\flac.exe
Additional command line options : -8 -V -T "ARTIST=%a" -T "TITLE=%t" -T "ALBUM=%g" -T "DATE=%y" -T "TRACKNUMBER=%n" -T "GENRE=%m" -T "COMMENT=EAC FLAC -8" %s
TOC of the extracted CD
Track | Start | Length | Start sector | End sector
---------------------------------------------------------
1 | 0:00.00 | 4:20.66 | 0 | 19565
2 | 4:20.66 | 4:36.00 | 19566 | 40265
3 | 8:56.66 | 4:16.00 | 40266 | 59465
4 | 13:12.66 | 3:51.00 | 59466 | 76790
5 | 17:03.66 | 4:41.00 | 76791 | 97865
6 | 21:44.66 | 4:45.00 | 97866 | 119240
7 | 26:29.66 | 2:22.00 | 119241 | 129890
8 | 28:51.66 | 3:45.00 | 129891 | 146765
9 | 32:36.66 | 3:31.36 | 146766 | 162626
10 | 36:08.27 | 3:43.00 | 162627 | 179351
11 | 39:51.27 | 2:58.00 | 179352 | 192701
12 | 42:49.27 | 3:58.00 | 192702 | 210551
13 | 46:47.27 | 3:28.00 | 210552 | 226151
14 | 50:15.27 | 2:47.50 | 226152 | 238726
15 | 53:03.02 | 3:43.00 | 238727 | 255451
16 | 56:46.02 | 3:25.00 | 255452 | 270826
17 | 60:11.02 | 2:13.01 | 270827 | 280802
18 | 62:24.03 | 2:17.31 | 280803 | 291108
19 | 64:41.34 | 5:33.00 | 291109 | 316083
20 | 70:14.34 | 2:32.00 | 316084 | 327483
21 | 72:46.34 | 3:38.00 | 327484 | 343833
22 | 76:24.34 | 2:12.61 | 343834 | 353794
Track 1
Filename D:\99\01. U2 – Street Missions.wav
Pre-gap length 0:00:02.00
Peak level 100.0 %
Track quality 100.0 %
Test CRC 91A89FF3
Copy CRC 91A89FF3
Track not present in AccurateRip database
Copy OK
Track 2
Filename D:\99\02. U2 – Shadows And Tall Trees.wav
Peak level 100.0 %
Track quality 100.0 %
Test CRC CC6DCBA4
Copy CRC CC6DCBA4
Track not present in AccurateRip database
Copy OK
Track 3
Filename D:\99\03. U2 – The Fool.wav
Peak level 100.0 %
Track quality 99.9 %
Test CRC 2E7AE1E2
Copy CRC 2E7AE1E2
Track not present in AccurateRip database
Copy OK
Track 4
Filename D:\99\04. U2 – Lost On A Distant Planet.wav
Peak level 100.0 %
Track quality 100.0 %
Test CRC A69ECA3B
Copy CRC A69ECA3B
Track not present in AccurateRip database
Copy OK
Track 5
Filename D:\99\05. U2 – Twilight.wav
Peak level 100.0 %
Track quality 100.0 %
Test CRC E7E35E97
Copy CRC E7E35E97
Track not present in AccurateRip database
Copy OK
Track 6
Filename D:\99\06. U2 – Another Time Another Place.wav
Peak level 100.0 %
Track quality 100.0 %
Test CRC A7322904
Copy CRC A7322904
Track not present in AccurateRip database
Copy OK
Track 7
Filename D:\99\07. U2 – Alone In The Light.wav
Peak level 100.0 %
Track quality 100.0 %
Test CRC 635C881C
Copy CRC 635C881C
Track not present in AccurateRip database
Copy OK
Track 8
Filename D:\99\08. U2 – 11 O Clock Tick Tock.wav
Peak level 100.0 %
Track quality 100.0 %
Test CRC 6E3B564E
Copy CRC 6E3B564E
Track not present in AccurateRip database
Copy OK
Track 9
Filename D:\99\09. U2 – Touch.wav
Peak level 100.0 %
Track quality 100.0 %
Test CRC D584035C
Copy CRC D584035C
Track not present in AccurateRip database
Copy OK
Track 10
Filename D:\99\10. U2 – Another Day.wav
Peak level 100.0 %
Track quality 100.0 %
Test CRC EE318982
Copy CRC EE318982
Track not present in AccurateRip database
Copy OK
Track 11
Filename D:\99\11. U2 – The Dream Is Over.wav
Peak level 100.0 %
Track quality 99.9 %
Test CRC 94D7C3D0
Copy CRC 94D7C3D0
Track not present in AccurateRip database
Copy OK
Track 12
Filename D:\99\12. U2 – Out Of Control.wav
Peak level 100.0 %
Track quality 100.0 %
Test CRC 8F36344D
Copy CRC 8F36344D
Track not present in AccurateRip database
Copy OK
Track 13
Filename D:\99\13. U2 – Boy Girl.wav
Peak level 100.0 %
Track quality 100.0 %
Test CRC 1EDB4049
Copy CRC 1EDB4049
Track not present in AccurateRip database
Copy OK
Track 14
Filename D:\99\14. U2 – Stories For Boys.wav
Peak level 100.0 %
Track quality 100.0 %
Test CRC BBA8AE17
Copy CRC BBA8AE17
Track not present in AccurateRip database
Copy OK
Track 15
Filename D:\99\15. U2 – A Day Without Me.wav
Peak level 100.0 %
Track quality 100.0 %
Test CRC FB5A5EE4
Copy CRC FB5A5EE4
Track not present in AccurateRip database
Copy OK
Track 16
Filename D:\99\16. U2 – Boy Girl (Live).wav
Peak level 100.0 %
Track quality 100.0 %
Test CRC 8A50F77E
Copy CRC 8A50F77E
Track not present in AccurateRip database
Copy OK
Track 17
Filename D:\99\17. U2 – Things To Make And Do.wav
Peak level 100.0 %
Track quality 100.0 %
Test CRC 2C8D3978
Copy CRC 2C8D3978
Track not present in AccurateRip database
Copy OK
Track 18
Filename D:\99\18. U2 – J Swallow.wav
Peak level 100.0 %
Track quality 100.0 %
Test CRC 175A856A
Copy CRC 175A856A
Track not present in AccurateRip database
Copy OK
Track 19
Filename D:\99\19. U2 – I Will Follow.wav
Peak level 100.0 %
Track quality 100.0 %
Test CRC 745F0ED7
Copy CRC 745F0ED7
Track not present in AccurateRip database
Copy OK
Track 20
Filename D:\99\20. U2 – Trash Trampoline And Party Gir.wav
Peak level 100.0 %
Track quality 100.0 %
Test CRC F5E8B61E
Copy CRC F5E8B61E
Track not present in AccurateRip database
Copy OK
Track 21
Filename D:\99\21. U2 – Two Hearts Beat As One.wav
Peak level 100.0 %
Track quality 100.0 %
Test CRC A50B76CF
Copy CRC A50B76CF
Track not present in AccurateRip database
Copy OK
Track 22
Filename D:\99\22. U2 – Glad To See You.wav
Peak level 100.0 %
Track quality 100.0 %
Test CRC 2EA83F9C
Copy CRC 2EA83F9C
Track not present in AccurateRip database
Copy OK
None of the tracks are present in the AccurateRip database
No errors occurred
End of status report
REM GENRE Rock
REM DISCID 50126D16
REM COMMENT "ExactAudioCopy v0.99pb4"
PERFORMER "U2"
TITLE "Children of the revolution"
FILE "01. U2 – Street Missions.wav" WAVE
TRACK 01 AUDIO
TITLE "Street Missions"
PERFORMER "U2"
INDEX 01 00:00:00
FILE "02. U2 – Shadows And Tall Trees.wav" WAVE
TRACK 02 AUDIO
TITLE "Shadows And Tall Trees"
PERFORMER "U2"
INDEX 01 00:00:00
FILE "03. U2 – The Fool.wav" WAVE
TRACK 03 AUDIO
TITLE "The Fool"
PERFORMER "U2"
INDEX 01 00:00:00
FILE "04. U2 – Lost On A Distant Planet.wav" WAVE
TRACK 04 AUDIO
TITLE "Lost On A Distant Planet"
PERFORMER "U2"
INDEX 01 00:00:00
FILE "05. U2 – Twilight.wav" WAVE
TRACK 05 AUDIO
TITLE "Twilight"
PERFORMER "U2"
INDEX 01 00:00:00
FILE "06. U2 – Another Time Another Place.wav" WAVE
TRACK 06 AUDIO
TITLE "Another Time Another Place"
PERFORMER "U2"
INDEX 01 00:00:00
FILE "07. U2 – Alone In The Light.wav" WAVE
TRACK 07 AUDIO
TITLE "Alone In The Light"
PERFORMER "U2"
INDEX 01 00:00:00
FILE "08. U2 – 11 O Clock Tick Tock.wav" WAVE
TRACK 08 AUDIO
TITLE "11 O Clock Tick Tock"
PERFORMER "U2"
INDEX 01 00:00:00
FILE "09. U2 – Touch.wav" WAVE
TRACK 09 AUDIO
TITLE "Touch"
PERFORMER "U2"
INDEX 01 00:00:00
FILE "10. U2 – Another Day.wav" WAVE
TRACK 10 AUDIO
TITLE "Another Day"
PERFORMER "U2"
INDEX 01 00:00:00
FILE "11. U2 – The Dream Is Over.wav" WAVE
TRACK 11 AUDIO
TITLE "The Dream Is Over"
PERFORMER "U2"
INDEX 01 00:00:00
FILE "12. U2 – Out Of Control.wav" WAVE
TRACK 12 AUDIO
TITLE "Out Of Control"
PERFORMER "U2"
INDEX 01 00:00:00
FILE "13. U2 – Boy Girl.wav" WAVE
TRACK 13 AUDIO
TITLE "Boy Girl"
PERFORMER "U2"
INDEX 01 00:00:00
FILE "14. U2 – Stories For Boys.wav" WAVE
TRACK 14 AUDIO
TITLE "Stories For Boys"
PERFORMER "U2"
INDEX 01 00:00:00
FILE "15. U2 – A Day Without Me.wav" WAVE
TRACK 15 AUDIO
TITLE "A Day Without Me"
PERFORMER "U2"
INDEX 01 00:00:00
FILE "16. U2 – Boy Girl (Live).wav" WAVE
TRACK 16 AUDIO
TITLE "Boy Girl (Live)"
PERFORMER "U2"
INDEX 01 00:00:00
FILE "17. U2 – Things To Make And Do.wav" WAVE
TRACK 17 AUDIO
TITLE "Things To Make And Do"
PERFORMER "U2"
INDEX 01 00:00:00
FILE "18. U2 – J Swallow.wav" WAVE
TRACK 18 AUDIO
TITLE "J Swallow"
PERFORMER "U2"
INDEX 01 00:00:00
FILE "19. U2 – I Will Follow.wav" WAVE
TRACK 19 AUDIO
TITLE "I Will Follow"
PERFORMER "U2"
INDEX 01 00:00:00
FILE "20. U2 – Trash Trampoline And Party Gir.wav" WAVE
TRACK 20 AUDIO
TITLE "Trash Trampoline And Party Gir"
PERFORMER "U2"
INDEX 01 00:00:00
FILE "21. U2 – Two Hearts Beat As One.wav" WAVE
TRACK 21 AUDIO
TITLE "Two Hearts Beat As One"
PERFORMER "U2"
INDEX 01 00:00:00
FILE "22. U2 – Glad To See You.wav" WAVE
TRACK 22 AUDIO
TITLE "Glad To See You"
PERFORMER "U2"
INDEX 01 00:00:00
Правила, инструкции, FAQ!!!
Торрент  Добавлен [26 мар 2019, 20:05] Скачать торрент Магнет ссылка
Скачать торрент
[ Размер 17.96 КБ / Просмотров 1 ]

Статус
Проверен 
 
Размер  405.24 МБ
Приватный: Нет (DHT включён)
.torrent скачан  0
 


     Отправить личное сообщение
   
Страница 1 из 1
Показать сообщения за:  Поле сортировки  
Начать новую тему Ответить на тему


Сейчас этот форум просматривают: нет зарегистрированных пользователей и гости: 0


Вы не можете начинать темы
Вы не можете отвечать на сообщения
Вы не можете редактировать свои сообщения
Вы не можете удалять свои сообщения
Вы не можете добавлять вложения

Перейти:  
cron